Babe - Never Listen To A Bouzouki Player (2001) [FLAC|Lossless]<Disco>

 
Автор Сообщение

sergej644 ®

Пол:

Стаж: 4 года 11 месяцев

Сообщений: 6043

Откуда: Soviet Union



Награды: Нет

Торрент-статистика

Создавать темы 24-Дек-2014 22:17

[Цитировать]

-Babe - Never Listen To A Bouzouki Player (2001)- Год: 2001
Лейбл: Rotation
Каталог #: 586 177-2
Жанр: Disco
Продолжительность: 00:58:23
Кодек: FLAC
Битрейт: Lossless
Тип битрейта: image +.cue
Треклист:
01. (Never Listen To A) Bouzouki Player
02. Break Away
03. Do You Know What Love Means
04. It's Only A Matter Of Time
05. L.O.V.E.
06. Only A Woman
07. Ooh La La I'm Falling
08. Please Me, Please Do
09. Rain In Spain
10. The Spanish Shuffle
11. The Drunken Sailor
12. Wonderboy
13. The King Is Back
14. Billy The Kid
15. The Kiss
16. Tick-A-Thumps My Heart

Отчёт ЕАС&#58;

Exact Audio Copy V0.99 prebeta 5 from 4. May 2009
Отчёт EAC об извлечении, выполненном 3. октября 2009, 20:52
Babe / Never Listen To A Bouzouki Player
Дисковод: Optiarc DVD RW AD-5200A Adapter: 0 ID: 0
Режим чтения : Достоверность
Использование точного потока : Да
Отключение кэша аудио : Да
Использование указателей C2 : Нет
Коррекция смещения при чтении : 48
Способность читать области Lead-in и Lead-out : Нет
Заполнение пропущенных сэмплов тишиной : Да
Удаление блоков с тишиной в начале и конце : Нет
При вычислениях CRC использовались нулевые сэмплы : Да
Интерфейс : Установленный внешний ASPI-интерфейс
Выходной формат : Внутренние WAV-операции
Формат сэмплов : 44.100 Гц; 16 бит; стерео
TOC извлечённого CD
Трек | Старт | Длительность | Начальный сектор | Конечный сектор
---------------------------------------------------------------------
1 | 0:00.00 | 3:06.46 | 0 | 13995
2 | 3:06.46 | 4:03.27 | 13996 | 32247
3 | 7:09.73 | 3:19.13 | 32248 | 47185
4 | 10:29.11 | 4:11.42 | 47186 | 66052
5 | 14:40.53 | 3:24.65 | 66053 | 81417
6 | 18:05.43 | 4:27.03 | 81418 | 101445
7 | 22:32.46 | 3:18.43 | 101446 | 116338
8 | 25:51.14 | 3:21.53 | 116339 | 131466
9 | 29:12.67 | 4:12.14 | 131467 | 150380
10 | 33:25.06 | 3:52.48 | 150381 | 167828
11 | 37:17.54 | 3:49.29 | 167829 | 185032
12 | 41:07.08 | 3:33.45 | 185033 | 201052
13 | 44:40.53 | 3:32.16 | 201053 | 216968
14 | 48:12.69 | 3:57.00 | 216969 | 234743
15 | 52:09.69 | 3:47.55 | 234744 | 251823
16 | 55:57.49 | 2:25.66 | 251824 | 262764
Характеристики диапазона извлечения и сообщения об ошибках
Выбранный диапазон
Имя файла E:\Babe - Never Listen To A Bouzouki Player\Babe - Never Listen To A Bouzouki Player.wav
Пиковый уровень 100.0 %
Качество диапазона 100.0 %
CRC теста 1752386F
CRC копии 1752386F
Копирование... OK
Ошибок не произошло
AccurateRip: сводка
Трек 1 нет в базе данных
Трек 2 нет в базе данных
Трек 3 нет в базе данных
Трек 4 нет в базе данных
Трек 5 нет в базе данных
Трек 6 нет в базе данных
Трек 7 нет в базе данных
Трек 8 нет в базе данных
Трек 9 нет в базе данных
Трек 10 нет в базе данных
Трек 11 нет в базе данных
Трек 12 нет в базе данных
Трек 13 нет в базе данных
Трек 14 нет в базе данных
Трек 15 нет в базе данных
Трек 16 нет в базе данных
Ни одного трека нет в базе AccurateRip
Конец отчёта

Отчёт auCDtect Task manager&#58;

-----------------------
DON'T MODIFY THIS FILE
-----------------------
PERFORMER: auCDtect Task Manager, ver. 1.5.1RC4 build 1.5.1.5
Copyright (c) 2008-2010 y-soft. All rights reserved
http://y-soft.org
ANALYZER: auCDtect: CD records authenticity detector, version 0.8.2
Copyright (c) 2004 Oleg Berngardt. All rights reserved.
Copyright (c) 2004 Alexander Djourik. All rights reserved.
FILE: Babe - Never Listen To A Bouzouki Player.flac
  Size: 412679321 Hash: 1D41F08F0C7EE7059C5D5D4A9871F6A3 Accuracy: -m0
  Conclusion: CDDA 100%
  Signature: 2209E803646F6E6223720251B58B1982B2E74318

Содержание индексной карты (.CUE&#41;&#58;

REM GENRE Disco
REM DATE 2001
REM DISCID E60DAF10
REM COMMENT "ExactAudioCopy v0.99pb5"
PERFORMER "Babe"
TITLE "Never Listen To A Bouzouki Player"
FILE "Babe - Never Listen To A Bouzouki Player.flac" WAVE
  TRACK 01 AUDIO
    TITLE "(Never Listen To A) Bouzouki Player"
    PERFORMER "Babe"
    INDEX 01 00:00:00
  TRACK 02 AUDIO
    TITLE "Break Away"
    PERFORMER "Babe"
    INDEX 00 03:04:34
    INDEX 01 03:06:46
  TRACK 03 AUDIO
    TITLE "Do You Know What Love Means"
    PERFORMER "Babe"
    INDEX 00 07:08:29
    INDEX 01 07:09:73
  TRACK 04 AUDIO
    TITLE "It's Only A Matter Of Time"
    PERFORMER "Babe"
    INDEX 00 10:27:11
    INDEX 01 10:29:11
  TRACK 05 AUDIO
    TITLE "L.O.V.E."
    PERFORMER "Babe"
    INDEX 00 14:38:53
    INDEX 01 14:40:53
  TRACK 06 AUDIO
    TITLE "Only A Woman"
    PERFORMER "Babe"
    INDEX 00 18:03:43
    INDEX 01 18:05:43
  TRACK 07 AUDIO
    TITLE "Ooh La La I'm Falling"
    PERFORMER "Babe"
    INDEX 00 22:30:73
    INDEX 01 22:32:46
  TRACK 08 AUDIO
    TITLE "Please Me, Please Do"
    PERFORMER "Babe"
    INDEX 00 25:48:65
    INDEX 01 25:51:14
  TRACK 09 AUDIO
    TITLE "Rain In Spain"
    PERFORMER "Babe"
    INDEX 00 29:10:67
    INDEX 01 29:12:67
  TRACK 10 AUDIO
    TITLE "The Spanish Shuffle"
    PERFORMER "Babe"
    INDEX 00 33:23:06
    INDEX 01 33:25:06
  TRACK 11 AUDIO
    TITLE "The Drunken Sailor"
    PERFORMER "Babe"
    INDEX 00 37:16:02
    INDEX 01 37:17:54
  TRACK 12 AUDIO
    TITLE "Wonderboy"
    PERFORMER "Babe"
    INDEX 00 41:05:08
    INDEX 01 41:07:08
  TRACK 13 AUDIO
    TITLE "The King Is Back"
    PERFORMER "Babe"
    INDEX 00 44:38:53
    INDEX 01 44:40:53
  TRACK 14 AUDIO
    TITLE "Billy The Kid"
    PERFORMER "Babe"
    INDEX 00 48:10:69
    INDEX 01 48:12:69
  TRACK 15 AUDIO
    TITLE "The Kiss"
    PERFORMER "Babe"
    INDEX 00 52:07:69
    INDEX 01 52:09:69
  TRACK 16 AUDIO
    TITLE "Tick-A-Thumps My Heart"
    PERFORMER "Babe"
    INDEX 00 55:55:72
    INDEX 01 55:57:49
[Профиль] [ЛС]

Создавать темы 13-Авг-2015 10:44 (спустя 7 месяцев 20 дней)

Топик был перенесен из форума Зарубежная в форум Technopop, Eurodance, Disco
sergej644
 
Кто просматривает тему:

Показать сообщения:    

Текущее время: Сегодня 14:39

Часовой пояс: GMT



Вы не можете начинать темы
Вы не можете отвечать на сообщения
Вы не можете редактировать свои сообщения
Вы не можете удалять свои сообщения
Вы не можете голосовать в опросах
Вы не можете прикреплять файлы к сообщениям
Вы не можете скачивать файлы