Babe - Hollands Glorie (2003) [FLAC|Lossless]<Disco>

 
Автор Сообщение

sergej644 ®

Пол:

Стаж: 4 года 11 месяцев

Сообщений: 6040

Откуда: Soviet Union



Награды: Нет

Торрент-статистика

Создавать темы 24-Дек-2014 22:16

[Цитировать]

-Babe - Hollands Glorie (2003)- Год: 2003
Лейбл: CNR Music
Каталог #: 22 209262
Жанр: Disco
Продолжительность: 01:04:01
Кодек: FLAC
Битрейт: Lossless
Тип битрейта: image +.cue
Треклист:
01. The Drunken Sailor
02. Ooh La La I'm Falling
03. Mister Blitzer
04. Wanna Do (What Mamma Said)
05. Please Me Please Do
06. (Never Listen To A) Bouzouki Player
07. I'm A Rocking Machine
08. Wonderboy
09. Billy Joe
10. Indian Habbits
11. My Malasia
12. Dolly The Doll
13. Together In Love Again
14. Thick-A-Thumps My Heart
15. (Don't You Ever) Shop Around
16. Explosive
17. Boomerang
18. The Kiss

Отчёт ЕАС&#58;

Exact Audio Copy V0.99 prebeta 5 from 4. May 2009
Отчёт EAC об извлечении, выполненном 15. марта 2010, 16:00
Babe / Hollands Glorie
Дисковод: PIONEER DVD-RW DVR-107D Adapter: 3 ID: 0
Режим чтения : Достоверность
Использование точного потока : Да
Отключение кэша аудио : Да
Использование указателей C2 : Нет
Коррекция смещения при чтении : 48
Способность читать области Lead-in и Lead-out : Нет
Заполнение пропущенных сэмплов тишиной : Да
Удаление блоков с тишиной в начале и конце : Нет
При вычислениях CRC использовались нулевые сэмплы : Да
Интерфейс : Встроенный Win32-интерфейс для Win NT/2000
Выходной формат : Внутренние WAV-операции
Формат сэмплов : 44.100 Гц; 16 бит; стерео
TOC извлечённого CD
Трек | Старт | Длительность | Начальный сектор | Конечный сектор
---------------------------------------------------------------------
1 | 0:00.00 | 4:17.44 | 0 | 19318
2 | 4:17.44 | 3:18.59 | 19319 | 34227
3 | 7:36.28 | 3:40.67 | 34228 | 50794
4 | 11:17.20 | 3:12.60 | 50795 | 65254
5 | 14:30.05 | 3:20.37 | 65255 | 80291
6 | 17:50.42 | 3:06.74 | 80292 | 94315
7 | 20:57.41 | 3:00.31 | 94316 | 107846
8 | 23:57.72 | 3:32.68 | 107847 | 123814
9 | 27:30.65 | 4:18.61 | 123815 | 143225
10 | 31:49.51 | 3:37.29 | 143226 | 159529
11 | 35:27.05 | 3:47.09 | 159530 | 176563
12 | 39:14.14 | 3:59.26 | 176564 | 194514
13 | 43:13.40 | 4:21.29 | 194515 | 214118
14 | 47:34.69 | 2:29.73 | 214119 | 225366
15 | 50:04.67 | 3:47.59 | 225367 | 242450
16 | 53:52.51 | 3:27.16 | 242451 | 257991
17 | 57:19.67 | 2:54.16 | 257992 | 271057
18 | 60:14.08 | 3:47.19 | 271058 | 288101
Характеристики диапазона извлечения и сообщения об ошибках
Выбранный диапазон
Имя файла H:\All\Music\Babe - Hollands Glorie\Babe - Hollands Glorie.wav
Пиковый уровень 100.0 %
Качество диапазона 100.0 %
CRC теста 76F8A16F
CRC копии 76F8A16F
Копирование... OK
Ошибок не произошло
AccurateRip: сводка
Трек 1 точное извлечение (доверие 1) [FC291A38]
Трек 2 точное извлечение (доверие 1) [53C825B8]
Трек 3 точное извлечение (доверие 1) [26E259DC]
Трек 4 точное извлечение (доверие 1) [A5E23886]
Трек 5 точное извлечение (доверие 1) [5E3DF830]
Трек 6 точное извлечение (доверие 1) [F1F8CFDE]
Трек 7 точное извлечение (доверие 1) [9D184065]
Трек 8 точное извлечение (доверие 1) [D8C9D13E]
Трек 9 точное извлечение (доверие 1) [4FA78EC9]
Трек 10 точное извлечение (доверие 1) [648D1655]
Трек 11 точное извлечение (доверие 1) [5D324FD1]
Трек 12 точное извлечение (доверие 1) [C9D12E30]
Трек 13 точное извлечение (доверие 1) [1BABB743]
Трек 14 точное извлечение (доверие 1) [0EE6899E]
Трек 15 точное извлечение (доверие 1) [B3441ACB]
Трек 16 точное извлечение (доверие 1) [0C6B7698]
Трек 17 точное извлечение (доверие 1) [74C980B3]
Трек 18 точность не определена (достоверность 1) [A386FAB0], AccurateRip вернул [D5384AC4]
17 трек(и) скопированы точно
1 трек(и) не удалось проверить на точность
Некоторые треки не прошли проверку на точность
Конец отчёта

Отчёт auCDtect Task manager&#58;

-----------------------
DON'T MODIFY THIS FILE
-----------------------
PERFORMER: auCDtect Task Manager, ver. 1.5.1RC4 build 1.5.1.5
Copyright (c) 2008-2010 y-soft. All rights reserved
http://y-soft.org
ANALYZER: auCDtect: CD records authenticity detector, version 0.8.2
Copyright (c) 2004 Oleg Berngardt. All rights reserved.
Copyright (c) 2004 Alexander Djourik. All rights reserved.
FILE: Babe - Hollands Glorie.flac
  Size: 461643015 Hash: BFA47A6801AB7E8A4D2BDDF974E2D389 Accuracy: -m0
  Conclusion: CDDA 100%
  Signature: 011B95666FEB188C511355F3194BFA04230B7EEE

Содержание индексной карты (.CUE&#41;&#58;

REM GENRE Disco
REM DATE 2003
REM DISCID 0A0F0112
REM COMMENT "ExactAudioCopy v0.99pb5"
CATALOG 8714221014860
PERFORMER "Babe"
TITLE "Hollands Glorie"
FILE "Babe - Hollands Glorie.flac" WAVE
  TRACK 01 AUDIO
    TITLE "The Drunken Sailor"
    PERFORMER "Babe"
    INDEX 01 00:00:00
  TRACK 02 AUDIO
    TITLE "Ooh La La I'm Falling"
    PERFORMER "Babe"
    INDEX 00 04:15:44
    INDEX 01 04:17:44
  TRACK 03 AUDIO
    TITLE "Mister Blitzer"
    PERFORMER "Babe"
    INDEX 00 07:34:28
    INDEX 01 07:36:28
  TRACK 04 AUDIO
    TITLE "Wanna Do (What Mamma Said)"
    PERFORMER "Babe"
    INDEX 00 11:15:20
    INDEX 01 11:17:20
  TRACK 05 AUDIO
    TITLE "Please Me Please Do"
    PERFORMER "Babe"
    INDEX 00 14:28:05
    INDEX 01 14:30:05
  TRACK 06 AUDIO
    TITLE "(Never Listen To A) Bouzouki Player"
    PERFORMER "Babe"
    INDEX 00 17:48:42
    INDEX 01 17:50:42
  TRACK 07 AUDIO
    TITLE "I'm A Rocking Machine"
    PERFORMER "Babe"
    INDEX 00 20:55:41
    INDEX 01 20:57:41
  TRACK 08 AUDIO
    TITLE "Wonderboy"
    PERFORMER "Babe"
    INDEX 00 23:55:72
    INDEX 01 23:57:72
  TRACK 09 AUDIO
    TITLE "Billy Joe"
    PERFORMER "Babe"
    INDEX 00 27:28:65
    INDEX 01 27:30:65
  TRACK 10 AUDIO
    TITLE "Indian Habbits"
    PERFORMER "Babe"
    INDEX 00 31:47:51
    INDEX 01 31:49:51
  TRACK 11 AUDIO
    TITLE "My Malasia"
    PERFORMER "Babe"
    INDEX 00 35:25:05
    INDEX 01 35:27:05
  TRACK 12 AUDIO
    TITLE "Dolly The Doll"
    PERFORMER "Babe"
    INDEX 00 39:12:14
    INDEX 01 39:14:14
  TRACK 13 AUDIO
    TITLE "Together In Love Again"
    PERFORMER "Babe"
    ISRC NLA240300769
    INDEX 00 43:11:40
    INDEX 01 43:13:40
  TRACK 14 AUDIO
    TITLE "Thick-A-Thumps My Heart"
    PERFORMER "Babe"
    INDEX 00 47:32:69
    INDEX 01 47:34:69
  TRACK 15 AUDIO
    TITLE "(Don't You Ever) Shop Around"
    PERFORMER "Babe"
    INDEX 00 50:02:67
    INDEX 01 50:04:67
  TRACK 16 AUDIO
    TITLE "Explosive"
    PERFORMER "Babe"
    ISRC NLA240300405
    INDEX 00 53:50:51
    INDEX 01 53:52:51
  TRACK 17 AUDIO
    TITLE "Boomerang"
    PERFORMER "Babe"
    INDEX 00 57:17:67
    INDEX 01 57:19:67
  TRACK 18 AUDIO
    TITLE "The Kiss"
    PERFORMER "Babe"
    INDEX 00 60:12:08
    INDEX 01 60:14:08
[Профиль] [ЛС]

Создавать темы 13-Авг-2015 10:44 (спустя 7 месяцев 20 дней)

Топик был перенесен из форума Зарубежная в форум Technopop, Eurodance, Disco
sergej644
 
Кто просматривает тему:

Показать сообщения:    

Текущее время: Сегодня 18:41

Часовой пояс: GMT



Вы не можете начинать темы
Вы не можете отвечать на сообщения
Вы не можете редактировать свои сообщения
Вы не можете удалять свои сообщения
Вы не можете голосовать в опросах
Вы не можете прикреплять файлы к сообщениям
Вы не можете скачивать файлы