(Heavy Metal) Axel Rudi Pell - Into The Storm (Deluxe Edition 2 CD) - 2014, FLAC (image+.cue), lossless

 
Автор Сообщение

sergej644 ®

Пол:

Стаж: 4 года 11 месяцев

Сообщений: 6043

Откуда: Soviet Union



Награды: Нет

Торрент-статистика

Создавать темы 19-Дек-2014 11:10

[Цитировать]

Axel Rudi Pell / Into The Storm (Deluxe Edition 2 CD)
Жанр: Heavy Metal
Носитель: CD
Страна-производитель диска: Germany
Год издания: 2014
Издатель (лейбл): Steamhammer
Номер по каталогу: SPV 266378 2CD-E
Страна исполнителя (группы): Germany
Аудиокодек: FLAC (*.flac)
Тип рипа: image+.cue
Битрейт аудио: lossless
Продолжительность: 01:10:28 / 00:27:39
Источник (релизер): vampiro [MeTaLMaDNeSS.TeaM] (Спасибо!)
Наличие сканов в содержимом раздачи: да
Треклист:

CD 1 (01:10:28)

01. The Inquisitorial Procedure (Intro) 1:48
02. Tower Of Lies 4:26
03. Long Way To Go 5:32
04. Burning Chains 5:23
05. When Truth Hurts 6:46
06. Changing Times 6:05
07. Touching Heaven 7:02
08. High Above 4:49
09. Hey Hey, My My (Neil Young cover) 5:02
10. Into The Storm 10:35
11. White Cats (Opus #6 Scivolare) (Instrumental) (Bonus Track) 4:54
12. Way To Mandalay (Blackmore's Night cover) (Bonus Track) 7:52

Лог создания рипа

Exact Audio Copy V1.0 beta 3 from 29. August 2011
EAC extraction logfile from 10. October 2014, 22:18
Axel Rudi Pell / Into the Storm
Used drive : PLEXTOR DVDR PX-891SA
Adapter: 1
ID: 0
Read mode : Secure
Utilize accurate stream : Yes
Defeat audio cache : Yes
Make use of C2 pointers : No
Read offset correction : 6
Overread into Lead-In and Lead-Out : No
Fill up missing offset samples with silence : Yes
Delete leading and trailing silent blocks : No
Null samples used in CRC calculations : Yes
Used interface : Native Win32 interface for Win NT & 2000
Used output format : User Defined Encoder
Selected bitrate : 768 kBit/s
Quality : High
Add ID3 tag : No
Command line compressor : C:\Program Files (x86)\Exact Audio Copy\FLAC\FLAC.EXE
Additional command line options : -6 -V %source%
TOC of the extracted CD
Track | Start | Length | Start sector | End sector
---------------------------------------------------------
1 | 0:00.00 | 1:48.51 | 0 | 8150
2 | 1:48.51 | 4:26.50 | 8151 | 28150
3 | 6:15.26 | 5:33.10 | 28151 | 53135
4 | 11:48.36 | 5:24.48 | 53136 | 77483
5 | 17:13.09 | 6:47.04 | 77484 | 108012
6 | 24:00.13 | 6:06.31 | 108013 | 135493
7 | 30:06.44 | 7:03.45 | 135494 | 167263
8 | 37:10.14 | 4:49.66 | 167264 | 189004
9 | 42:00.05 | 5:03.23 | 189005 | 211752
10 | 47:03.28 | 10:36.29 | 211753 | 259481
11 | 57:39.57 | 4:55.68 | 259482 | 281674
12 | 62:35.50 | 7:52.27 | 281675 | 317101
Range status and errors
Selected range
Filename D:\MeTaLMaDNeSS.TeaM\Axel Rudi Pell (GER) - Into the Storm (Ltd.Ed.Digipak.2CD)\
CD1 - Axel Rudi Pell - Into the Storm.wav
Peak level 98.8 %
Extraction speed 3.6 X
Range quality 99.9 %
Test CRC 108C23EB
Copy CRC 108C23EB
Copy OK
No errors occurred
AccurateRip summary
Track 1 accurately ripped (confidence 19) [A68EE2BF] (AR v2)
Track 2 accurately ripped (confidence 18) [CDC337BE] (AR v2)
Track 3 accurately ripped (confidence 18) [8E8094C2] (AR v2)
Track 4 accurately ripped (confidence 18) [8079BC75] (AR v2)
Track 5 accurately ripped (confidence 18) [32F9953F] (AR v2)
Track 6 accurately ripped (confidence 18) [0AC3AA5D] (AR v2)
Track 7 accurately ripped (confidence 18) [DF7199A6] (AR v2)
Track 8 accurately ripped (confidence 18) [A85F6E18] (AR v2)
Track 9 accurately ripped (confidence 18) [69DCFF9B] (AR v2)
Track 10 accurately ripped (confidence 18) [B78EE0DF] (AR v2)
Track 11 accurately ripped (confidence 18) [16F845CF] (AR v2)
Track 12 accurately ripped (confidence 19) [F62BC32E] (AR v2)
All tracks accurately ripped
End of status report
---- CUETools DB Plugin V2.1.3
[CTDB TOCID: fwVNg7TdPrprV4Kr354QD7RAosE-] found, Submit result: fwVNg7TdPrprV4Kr354QD7RAosE- has been confirmed[51ef209f] (27/27) Accurately ripped
==== Log checksum 79D34C59595544A6D4F9DFB35DB143FDEEB8C1D31765B8167F93FA7C2A3B9428 ====

Содержание индексной карты (.CUE)

REM GENRE "Heavy Metal"
REM DATE 2014
REM DISCID 8B10840C
REM COMMENT "ExactAudioCopy v1.0b3"
PERFORMER "Axel Rudi Pell"
TITLE "Into The Storm (CD 1)"
FILE "Axel Rudi Pell - Into The Storm (CD 1).flac" WAVE
TRACK 01 AUDIO
TITLE "The Inquisitorial Procedure (Intro)"
PERFORMER "Axel Rudi Pell"
INDEX 01 00:00:00
TRACK 02 AUDIO
TITLE "Tower Of Lies"
PERFORMER "Axel Rudi Pell"
INDEX 01 01:48:51
TRACK 03 AUDIO
TITLE "Long Way To Go"
PERFORMER "Axel Rudi Pell"
INDEX 00 06:14:51
INDEX 01 06:15:26
TRACK 04 AUDIO
TITLE "Burning Chains"
PERFORMER "Axel Rudi Pell"
INDEX 00 11:47:25
INDEX 01 11:48:36
TRACK 05 AUDIO
TITLE "When Truth Hurts"
PERFORMER "Axel Rudi Pell"
INDEX 00 17:11:25
INDEX 01 17:13:09
TRACK 06 AUDIO
TITLE "Changing Times"
PERFORMER "Axel Rudi Pell"
INDEX 00 23:59:25
INDEX 01 24:00:13
TRACK 07 AUDIO
TITLE "Touching Heaven"
PERFORMER "Axel Rudi Pell"
INDEX 00 30:05:37
INDEX 01 30:06:44
TRACK 08 AUDIO
TITLE "High Above"
PERFORMER "Axel Rudi Pell"
INDEX 00 37:09:01
INDEX 01 37:10:14
TRACK 09 AUDIO
TITLE "Hey Hey, My My (Neil Young cover)"
PERFORMER "Axel Rudi Pell"
INDEX 00 41:58:71
INDEX 01 42:00:05
TRACK 10 AUDIO
TITLE "Into The Storm"
PERFORMER "Axel Rudi Pell"
INDEX 00 47:03:05
INDEX 01 47:03:28
TRACK 11 AUDIO
TITLE "White Cats (Opus #6 Scivolare) (Instrumental) (Bonus Track)"
PERFORMER "Axel Rudi Pell"
INDEX 00 57:37:73
INDEX 01 57:39:57
TRACK 12 AUDIO
TITLE "Way To Mandalay (Blackmore's Night cover) (Bonus Track)"
PERFORMER "Axel Rudi Pell"
INDEX 00 62:34:46
INDEX 01 62:35:50

Лог проверки качества

AUDIOCHECKER v2.0 beta (build 457) - by Dester - opdester@freemail.hu
~~~~~~~~~~~~~~~~~~~~~~~~~~~~~~~~~~
-=== НЕ РЕДАКТИРУЙТЕ ЭТОТ ФАЙЛ! ===-
Путь: ...\CD 1
1 -=- Axel Rudi Pell - Into The Storm (CD 1).flac -=- CDDA (100%)
138389652
Лог AccurateRip
[CUETools log; Date: 08.11.2014 17:10:28; Version: 2.1.4]
[CTDB TOCID: fwVNg7TdPrprV4Kr354QD7RAosE-] found.
Track | CTDB Status
  1   | (28/28) Accurately ripped
  2   | (28/28) Accurately ripped
  3   | (28/28) Accurately ripped
  4   | (28/28) Accurately ripped
  5   | (28/28) Accurately ripped
  6   | (28/28) Accurately ripped
  7   | (28/28) Accurately ripped
  8   | (28/28) Accurately ripped
  9   | (28/28) Accurately ripped
10   | (28/28) Accurately ripped
11   | (28/28) Accurately ripped
12   | (28/28) Accurately ripped
[AccurateRip ID: 001c06a6-010fc4ef-8b10840c] found.
Track   [  CRC   |   V2   ] Status
01     [a7102721|a68ee2bf] (02+19/23) Accurately ripped
02     [a80e092c|cdc337be] (02+18/22) Accurately ripped
03     [37dc18fd|8e8094c2] (02+18/22) Accurately ripped
04     [ca7f215a|8079bc75] (02+18/22) Accurately ripped
05     [19cb16a5|32f9953f] (02+18/22) Accurately ripped
06     [e35b5407|0ac3aa5d] (02+18/22) Accurately ripped
07     [92bcb2e1|df7199a6] (02+18/22) Accurately ripped
08     [22eea559|a85f6e18] (02+18/22) Accurately ripped
09     [de302bea|69dcff9b] (02+18/22) Accurately ripped
10     [a3e1b866|b78ee0df] (02+18/22) Accurately ripped
11     [fc1586c3|16f845cf] (02+18/22) Accurately ripped
12     [a9ebaf94|f62bc32e] (02+19/23) Accurately ripped
Offsetted by -6:
01     [a266ca1a] (00/23) No match (V2 was not tested)
02     [b4eb041f] (00/22) No match (V2 was not tested)
03     [291f54d7] (00/22) No match (V2 was not tested)
04     [87db3fc6] (00/22) No match (V2 was not tested)
05     [f2e4aa6d] (00/22) No match (V2 was not tested)
06     [2115eaab] (00/22) No match (V2 was not tested)
07     [2baff4ab] (00/22) No match (V2 was not tested)
08     [268f3be7] (00/22) No match (V2 was not tested)
09     [a96276a6] (00/22) No match (V2 was not tested)
10     [912f708e] (00/22) No match (V2 was not tested)
11     [0cc6d7e5] (00/22) No match (V2 was not tested)
12     [78f650de] (00/23) No match (V2 was not tested)
Track Peak [ CRC32  ] [W/O NULL] [  LOG   ]
--   98,8 [108C23EB] [8410B868]   CRC32
01   55,4 [0C66F1D7] [B5A0360D]
02   98,2 [7043D0D0] [C876D192]
03   98,0 [3DB7AF3D] [27CCAD6D]
04   97,8 [3DEBDD89] [609AE72D]
05   97,6 [C0977AB3] [2FC212EF]
06   98,8 [454F30A9] [4DBA59CC]
07   97,6 [984F3699] [B1D7703B]
08   97,6 [1CF1A90E] [E1EA24BA]
09   97,6 [493502B4] [14A9C248]
10   98,5 [ABDD5711] [CDC2A726]
11   98,8 [53846628] [10FCB694]
12   97,6 [F6D64DB3] [BE83EF48]

CD 2 - Bonus CD (Live in Erfurt, Germany, February 15th, 2014) (00:27:39)

01. Nasty Reputation (Live in Erfurt, Germany) 5:45
02. Strong As A Rock (Live in Erfurt, Germany) 7:55
03. Medley: Too Late/Call Her Princess/Eternal Prisoner/Too Late (Live in Erfurt, Germany) 13:30

Лог создания рипа

Exact Audio Copy V1.0 beta 3 from 29. August 2011
EAC extraction logfile from 10. October 2014, 22:37
Axel Rudi Pell / Into the Storm (Bonus CD)
Used drive : PLEXTOR DVDR PX-891SA Adapter: 1 ID: 0
Read mode : Secure
Utilize accurate stream : Yes
Defeat audio cache : Yes
Make use of C2 pointers : No
Read offset correction : 6
Overread into Lead-In and Lead-Out : No
Fill up missing offset samples with silence : Yes
Delete leading and trailing silent blocks : No
Null samples used in CRC calculations : Yes
Used interface : Native Win32 interface for Win NT & 2000
Used output format : User Defined Encoder
Selected bitrate : 768 kBit/s
Quality : High
Add ID3 tag : No
Command line compressor : C:\Program Files (x86)\Exact Audio Copy\FLAC\FLAC.EXE
Additional command line options : -6 -V %source%
TOC of the extracted CD
Track | Start | Length | Start sector | End sector
---------------------------------------------------------
1 | 0:00.00 | 5:47.57 | 0 | 26081
2 | 5:47.57 | 8:04.24 | 26082 | 62405
3 | 13:52.06 | 13:47.00 | 62406 | 124430
4 | 30:11.06 | 24:35.37 | 135831 | 246492
Range status and errors
Selected range
Filename D:\MeTaLMaDNeSS.TeaM\Axel Rudi Pell (GER) - Into the Storm (Ltd.Ed.Digipak.2CD)\CD2 - Axel Rudi Pell - Into the Storm (Bonus CD).wav
Peak level 98.7 %
Extraction speed 2.7 X
Range quality 100.0 %
Test CRC 1B5737AA
Copy CRC 1B5737AA
Copy OK
No errors occurred
AccurateRip summary
Track 1 not present in database
Track 2 not present in database
Track 3 not present in database
None of the tracks are present in the AccurateRip database
End of status report
---- CUETools DB Plugin V2.1.3
[CTDB TOCID: 3DiZk9DiJhmDYfqd6NpQhuaIpQ8-] found, Submit result: 3DiZk9DiJhmDYfqd6NpQhuaIpQ8- has been confirmed
[23836338] (1/1) Accurately ripped
==== Log checksum F63F3DBD94F7E95985DF6AA5C40B73CC2DCD3E6CE54A096F158C87BA49DE8FAA ====

Содержание индексной карты (.CUE)

REM GENRE "Heavy Metal"
REM DATE 2014
REM DISCID 2E0CD604
REM COMMENT "ExactAudioCopy v1.0b3"
PERFORMER "Axel Rudi Pell"
TITLE "Into The Storm (Bonus CD)"
FILE "Axel Rudi Pell - Into The Storm (Bonus CD).flac" WAVE
TRACK 01 AUDIO
TITLE "Nasty Reputation (Live in Erfurt, Germany)"
PERFORMER "Axel Rudi Pell"
INDEX 01 00:00:00
TRACK 02 AUDIO
TITLE "Strong As A Rock (Live in Erfurt, Germany)"
PERFORMER "Axel Rudi Pell"
INDEX 01 05:47:57
TRACK 03 AUDIO
TITLE "Medley: Too Late/Call Her Princess/Eternal Prisoner/Too Late (Live in Erfurt, Germany)"
PERFORMER "Axel Rudi Pell"
INDEX 00 13:51:14
INDEX 01 13:52:06

Лог проверки качества

AUDIOCHECKER v2.0 beta (build 457) - by Dester - opdester@freemail.hu
~~~~~~~~~~~~~~~~~~~~~~~~~~~~~~~~~~
-=== НЕ РЕДАКТИРУЙТЕ ЭТОТ ФАЙЛ! ===-
Путь: ...\CD 2 - Bonus CD
1 -=- Axel Rudi Pell - Into The Storm (Bonus CD).flac -=- CDDA (100%)
81113220

Лог AccurateRip

[CUETools log; Date: 08.11.2014 16:18:30; Version: 2.1.4]
CD-Extra data track length 24:35:37.
[CTDB TOCID: 3DiZk9DiJhmDYfqd6NpQhuaIpQ8-] found.
Track | CTDB Status
  1   | (2/2) Accurately ripped
  2   | (2/2) Accurately ripped
  3   | (2/2) Accurately ripped
[AccurateRip ID: 00051c85-0012b28b-2e0cd604] disk not present in database.
Track Peak [ CRC32  ] [W/O NULL] [  LOG   ]
--   98,7 [1B5737AA] [D4FA43DF]   CRC32
01   98,7 [DA84660A] [36A8432C]
02   98,7 [0E33942E] [7083E346]
03   98,7 [EF38FAAA] [94000014]

Об альбоме (сборнике)

Written By - Axel Rudi Pell (tracks: 1.1 to 1.8, 1.10, 1.11, 2.1 to 2.3), Neil Young (tracks: 1.9), Ritchie Blackmore, Candice Night (tracks: 1.12), Rob Rock (tracks: 2.1)
(p)&(c) 2014 Steamhammer, a division Of SPV GmbH.
Made in Germany.
All live tracks are recorded by Arne Lakenmacher in Erfurt, Germany, February 15th, 2014.
All tracks published by Musik Edition Discoton GmbH / Universal Music Publishing GmbH P 2013,
except "Hey Hey, My My" (written by Neil Young) published by Silver Fiddle Music / Melodie Der Welt J. Michel GmbH & Co. KG.
and "Way To Mandalay" (written by Ritchie Blackmore and Candice Night) published by Minstrel Hall Music / BMG Rights Management GmbH.
Videoclip "Long Way To Go" was shot on location at "Zeche" Bochum, Germany, February 21st, 2014, directed by Tim Assmann.
Bonus Video - Long Way To Go (Live at "Zeche" Bochum, Germany, February 21st, 2014)

Screenshots

Отчёт MediaInfo

General
Complete name : J:\Music Lossless III\Axel Rudi Pell (1989-2014)\2014 - Into The Storm (Deluxe Edition 2 CD) (Steamhammer SPV 266378 2CD-E, Germany)_FLAC (image+.cue)\Video\Long Way To Go.mp4
Format : MPEG-4
Format profile : Base Media / Version 2
Codec ID : mp42
File size : 216 MiB
Duration : 4mn 59s
Overall bit rate mode : Variable
Overall bit rate : 6 053 Kbps
Encoded date : UTC 2014-03-25 23:19:58
Tagged date : UTC 2014-03-25 23:19:58
©TIM : 00:00:00:00
©TSC : 24000
©TSZ : 1001
Video
ID : 1
Format : AVC
Format/Info : Advanced Video Codec
Format profile : High@L3.2
Format settings, CABAC : Yes
Format settings, ReFrames : 3 frames
Codec ID : avc1
Codec ID/Info : Advanced Video Coding
Duration : 4mn 59s
Bit rate : 5 973 Kbps
Width : 1 280 pixels
Height : 720 pixels
Display aspect ratio : 16:9
Frame rate mode : Constant
Frame rate : 24.000 fps
Standard : NTSC
Color space : YUV
Chroma subsampling : 4:2:0
Bit depth : 8 bits
Scan type : Progressive
Bits/(Pixel*Frame) : 0.270
Stream size : 213 MiB (99%)
Language : English
Encoded date : UTC 2014-03-25 23:19:58
Tagged date : UTC 2014-03-25 23:19:58
Color primaries : BT.709
Transfer characteristics : BT.709
Matrix coefficients : BT.709
Audio
ID : 2
Format : AAC
Format/Info : Advanced Audio Codec
Format profile : LC
Codec ID : 40
Duration : 4mn 59s
Source duration : 4mn 59s
Bit rate mode : Variable
Bit rate : 61.6 Kbps
Maximum bit rate : 109 Kbps
Channel(s) : 2 channels
Channel positions : Front: L R
Sampling rate : 44.1 KHz
Compression mode : Lossy
Stream size : 2.20 MiB (1%)
Source stream size : 2.20 MiB (1%)
Language : English
Encoded date : UTC 2014-03-25 23:19:58
Tagged date : UTC 2014-03-25 23:19:58

Состав

Vocals - Johnny Gioeli
Guitars [Lead, Rhythm, Acoustic] - Axel Rudi Pell
Keyboards - Ferdy Dörnberg
Bass - Volker Krawczak
Drums - Bobby Rondinelli (Robert Rondinelli)
Violin [Guest] - Leonor Bloch (tracks: 5, 9, 10, 12)
[Профиль] [ЛС]
Показать сообщения:    

Текущее время: Сегодня 18:37

Часовой пояс: GMT



Вы не можете начинать темы
Вы не можете отвечать на сообщения
Вы не можете редактировать свои сообщения
Вы не можете удалять свои сообщения
Вы не можете голосовать в опросах
Вы не можете прикреплять файлы к сообщениям
Вы не можете скачивать файлы