(Heavy Metal)Axel Rudi Pell & Friends - Magic Moments (2015) 25th Anniversary Special Show [FLAC, (image+cue), Lossless]

 
Автор Сообщение

sergej644 ®

Пол:

Стаж: 4 года 11 месяцев

Сообщений: 6040

Откуда: Soviet Union



Награды: Нет

Торрент-статистика

Создавать темы 30-Май-2015 11:51

[Цитировать]

-Axel Rudi Pell / Magic Moments - 25th Anniversary Special Show (3CD)-- Год издания: 2015
Страна: Germany
Жанр: Melodic Heavy Metal
Продолжительность: 03:03:35-Лейбл издания: SPV
Тип альбома: Live
Страна-выпуска диска: Germany
Номер по каталогу: SPV 267890
Формат: FLAC
Битрейт аудио: lossless
Тип рипа: image+.cue
Наличие сканов в содержимом раздачи: да
--

Трэклист

CD 1 | 00:38:57

01.Call Her Princess (03:37)
02.Night After Night (06:44)
03.Rockin'The City (04:34)
04.Undercover Animal (05:25)
05.Nasty Reputation (05:45)
06.Warrior (06:20)
07.Fool Fool (06:35)

CD 2 | 01:19:43

01.Burning Chains (07:11)
02.Strong As A Rock (09:03)
03.Long Way To Go (05:23)
04.Hey Hey My My (09:18)
05.Mystica (09:47)
06.Into The Storm (12:10)
07.Too Late / Eternal Prisoner / Too Late (11:20)
08.The Masquerade Ball / Casbah (09:46)
09.Rock The Nation (05:49)

CD 3 | 01:04:56

01.Drum Battle (10:23)
02.Black Night (07:34)
03.Sympathy (07:36)
04.Tush (03:54)
05.Mistreated (14:13)
06.Since You Been Gone (04:43)
07.Long Live Rock 'N' Roll (08:18)
08.Smoke On The Water (08:18)
--

Лог создания рипа

CD 1

Exact Audio Copy V1.0 beta 3 from 29. August 2011
EAC extraction logfile from 27. May 2015, 22:20
Axel Rudi Pell / Magic Moments - 25th Anniversary Special Show CD1
Used drive  : PLEXTOR DVDR   PX-860A   Adapter: 4  ID: 0
Read mode               : Secure
Utilize accurate stream : Yes
Defeat audio cache      : Yes
Make use of C2 pointers : No
Read offset correction                      : 96
Overread into Lead-In and Lead-Out          : No
Fill up missing offset samples with silence : Yes
Delete leading and trailing silent blocks   : No
Null samples used in CRC calculations       : Yes
Used interface                              : Installed external ASPI interface
Used output format              : User Defined Encoder
Selected bitrate                : 128 kBit/s
Quality                         : High
Add ID3 tag                     : Yes
Command line compressor         : G:\Program Files (x86)\Exact Audio Copy\Flac\flac.exe
Additional command line options : -V -8 -T "Date=%year%" -T "Genre=%genre%" %source%
TOC of the extracted CD
     Track |   Start  |  Length  | Start sector | End sector
    ---------------------------------------------------------
        1  |  0:00.00 |  3:36.08 |         0    |    16207
        2  |  3:36.08 |  6:43.70 |     16208    |    46502
        3  | 10:20.03 |  4:33.18 |     46503    |    66995
        4  | 14:53.21 |  5:24.73 |     66996    |    91368
        5  | 20:18.19 |  5:44.58 |     91369    |   117226
        6  | 26:03.02 |  6:19.44 |    117227    |   145695
        7  | 32:22.46 |  6:34.08 |    145696    |   175253
Range status and errors
Selected range
     Filename D:\MUSIC\Axel Rudi Pell - Magic Moments - 25th Anniversary Special Show CD1.wav
     Peak level 97.6 %
     Extraction speed 7.0 X
     Range quality 100.0 %
     Test CRC 8107381D
     Copy CRC 8107381D
     Copy OK
No errors occurred
AccurateRip summary
Track  1  not present in database
Track  2  not present in database
Track  3  not present in database
Track  4  not present in database
Track  5  not present in database
Track  6  not present in database
Track  7  not present in database
None of the tracks are present in the AccurateRip database
End of status report

CD 2

Exact Audio Copy V1.0 beta 3 from 29. August 2011
EAC extraction logfile from 27. May 2015, 22:27
Axel Rudi Pell / 25th Anniversary Special Show CD2
Used drive  : PLEXTOR BD-R   PX-B940SA   Adapter: 5  ID: 0
Read mode               : Secure
Utilize accurate stream : Yes
Defeat audio cache      : Yes
Make use of C2 pointers : No
Read offset correction                      : 667
Overread into Lead-In and Lead-Out          : No
Fill up missing offset samples with silence : Yes
Delete leading and trailing silent blocks   : No
Null samples used in CRC calculations       : Yes
Used interface                              : Installed external ASPI interface
Used output format              : User Defined Encoder
Selected bitrate                : 128 kBit/s
Quality                         : High
Add ID3 tag                     : Yes
Command line compressor         : G:\Program Files (x86)\Exact Audio Copy\Flac\flac.exe
Additional command line options : -V -8 -T "Date=%year%" -T "Genre=%genre%" %source%
TOC of the extracted CD
     Track |   Start  |  Length  | Start sector | End sector
    ---------------------------------------------------------
        1  |  0:00.00 |  7:10.45 |         0    |    32294
        2  |  7:10.45 |  9:02.38 |     32295    |    72982
        3  | 16:13.08 |  5:22.06 |     72983    |    97138
        4  | 21:35.14 |  9:17.70 |     97139    |   138983
        5  | 30:53.09 |  9:46.61 |    138984    |   182994
        6  | 40:39.70 | 12:09.55 |    182995    |   237724
        7  | 52:49.50 | 11:19.19 |    237725    |   288668
        8  | 64:08.69 |  9:45.37 |    288669    |   332580
        9  | 73:54.31 |  5:48.05 |    332581    |   358685
Range status and errors
Selected range
     Filename D:\MUSIC\Axel Rudi Pell - 25th Anniversary Special Show CD2.wav
     Peak level 97.9 %
     Extraction speed 5.4 X
     Range quality 99.9 %
     Test CRC EC868363
     Copy CRC EC868363
     Copy OK
No errors occurred
AccurateRip summary
Track  1  not present in database
Track  2  not present in database
Track  3  not present in database
Track  4  not present in database
Track  5  not present in database
Track  6  not present in database
Track  7  not present in database
Track  8  not present in database
Track  9  not present in database
None of the tracks are present in the AccurateRip database
End of status report

CD 3

Exact Audio Copy V1.0 beta 3 from 29. August 2011
EAC extraction logfile from 28. May 2015, 6:31
Axel Rudi Pell / 25th Anniversary Special Show CD3
Used drive  : PLEXTOR DVDR   PX-860A   Adapter: 4  ID: 0
Read mode               : Secure
Utilize accurate stream : Yes
Defeat audio cache      : Yes
Make use of C2 pointers : No
Read offset correction                      : 96
Overread into Lead-In and Lead-Out          : No
Fill up missing offset samples with silence : Yes
Delete leading and trailing silent blocks   : No
Null samples used in CRC calculations       : Yes
Used interface                              : Installed external ASPI interface
Used output format              : User Defined Encoder
Selected bitrate                : 128 kBit/s
Quality                         : High
Add ID3 tag                     : Yes
Command line compressor         : G:\Program Files (x86)\Exact Audio Copy\Flac\flac.exe
Additional command line options : -V -8 -T "Date=%year%" -T "Genre=%genre%" %source%
TOC of the extracted CD
     Track |   Start  |  Length  | Start sector | End sector
    ---------------------------------------------------------
        1  |  0:00.00 | 10:22.38 |         0    |    46687
        2  | 10:22.38 |  7:33.71 |     46688    |    80733
        3  | 17:56.34 |  7:35.70 |     80734    |   114928
        4  | 25:32.29 |  3:53.53 |    114929    |   132456
        5  | 29:26.07 | 14:12.19 |    132457    |   196375
        6  | 43:38.26 |  4:42.58 |    196376    |   217583
        7  | 48:21.09 |  8:17.07 |    217584    |   254865
        8  | 56:38.16 |  8:17.29 |    254866    |   292169
Range status and errors
Selected range
     Filename D:\MUSIC\Axel Rudi Pell - 25th Anniversary Special Show CD3.wav
     Peak level 97.9 %
     Extraction speed 7.9 X
     Range quality 100.0 %
     Test CRC FDD0C98D
     Copy CRC FDD0C98D
     Copy OK
No errors occurred
AccurateRip summary
Track  1  not present in database
Track  2  not present in database
Track  3  not present in database
Track  4  not present in database
Track  5  not present in database
Track  6  not present in database
Track  7  not present in database
Track  8  not present in database
None of the tracks are present in the AccurateRip database
End of status report

Индексная карта (non-compilant .cue)

CD 1

REM GENRE Rock
REM DATE 2015
REM DISCID 55092007
REM COMMENT "ExactAudioCopy v1.0b3"
PERFORMER "Axel Rudi Pell"
TITLE "Magic Moments - 25th Anniversary Special Show CD1"
FILE "Axel Rudi Pell - Magic Moments - 25th Anniversary Special Show CD1.flac" WAVE
  TRACK 01 AUDIO
    TITLE "Call Her Princess"
    PERFORMER "Axel Rudi Pell"
    INDEX 01 00:00:00
  TRACK 02 AUDIO
    TITLE "Night After Night"
    PERFORMER "Axel Rudi Pell"
    INDEX 01 03:36:08
  TRACK 03 AUDIO
    TITLE "Rockin'The City"
    PERFORMER "Axel Rudi Pell"
    INDEX 01 10:20:03
  TRACK 04 AUDIO
    TITLE "Undercover Animal"
    PERFORMER "Axel Rudi Pell"
    INDEX 01 14:53:21
  TRACK 05 AUDIO
    TITLE "Nasty Reputation"
    PERFORMER "Axel Rudi Pell"
    INDEX 01 20:18:19
  TRACK 06 AUDIO
    TITLE "Warrior"
    PERFORMER "Axel Rudi Pell"
    INDEX 01 26:03:02
  TRACK 07 AUDIO
    TITLE "Fool Fool"
    PERFORMER "Axel Rudi Pell"
    INDEX 01 32:22:46

CD 2

REM GENRE Rock
REM DATE 2015
REM DISCID 7E12AE09
REM COMMENT "ExactAudioCopy v1.0b3"
PERFORMER "Axel Rudi Pell"
TITLE "25th Anniversary Special Show CD2"
FILE "Axel Rudi Pell - 25th Anniversary Special Show CD2.flac" WAVE
  TRACK 01 AUDIO
    TITLE "Burning Chains"
    PERFORMER "Axel Rudi Pell"
    INDEX 01 00:00:00
  TRACK 02 AUDIO
    TITLE "Strong As A Rock"
    PERFORMER "Axel Rudi Pell"
    INDEX 01 07:10:45
  TRACK 03 AUDIO
    TITLE "Long Way To Go"
    PERFORMER "Axel Rudi Pell"
    INDEX 01 16:13:08
  TRACK 04 AUDIO
    TITLE "Hey Hey My My"
    PERFORMER "Axel Rudi Pell"
    INDEX 01 21:35:14
  TRACK 05 AUDIO
    TITLE "Mystica"
    PERFORMER "Axel Rudi Pell"
    INDEX 01 30:53:09
  TRACK 06 AUDIO
    TITLE "Into The Storm"
    PERFORMER "Axel Rudi Pell"
    INDEX 01 40:39:70
  TRACK 07 AUDIO
    TITLE "Too Late / Eternal Prisoner / Too Late"
    PERFORMER "Axel Rudi Pell"
    INDEX 01 52:49:50
  TRACK 08 AUDIO
    TITLE "The Masquerade Ball / Casbah"
    PERFORMER "Axel Rudi Pell"
    INDEX 01 64:08:69
  TRACK 09 AUDIO
    TITLE "Rock The Nation"
    PERFORMER "Axel Rudi Pell"
    INDEX 01 73:54:31

CD 3

REM GENRE Rock
REM DATE 2015
REM DISCID 600F3708
REM COMMENT "ExactAudioCopy v1.0b3"
PERFORMER "Axel Rudi Pell"
TITLE "25th Anniversary Special Show CD3"
FILE "Axel Rudi Pell - 25th Anniversary Special Show CD3.flac" WAVE
  TRACK 01 AUDIO
    TITLE "Drum Battle"
    PERFORMER "Axel Rudi Pell"
    INDEX 01 00:00:00
  TRACK 02 AUDIO
    TITLE "Black Night"
    PERFORMER "Axel Rudi Pell"
    INDEX 01 10:22:38
  TRACK 03 AUDIO
    TITLE "Sympathy"
    PERFORMER "Axel Rudi Pell"
    INDEX 01 17:56:34
  TRACK 04 AUDIO
    TITLE "Tush"
    PERFORMER "Axel Rudi Pell"
    INDEX 01 25:32:29
  TRACK 05 AUDIO
    TITLE "Mistreated"
    PERFORMER "Axel Rudi Pell"
    INDEX 01 29:26:07
  TRACK 06 AUDIO
    TITLE "Since You Been Gone"
    PERFORMER "Axel Rudi Pell"
    INDEX 01 43:38:26
  TRACK 07 AUDIO
    TITLE "Long Live Rock 'N' Roll"
    PERFORMER "Axel Rudi Pell"
    INDEX 01 48:21:09
  TRACK 08 AUDIO
    TITLE "Smoke On The Water"
    PERFORMER "Axel Rudi Pell"
    INDEX 01 56:38:16

Лог Audiochecker

CD 1

AUDIOCHECKER v2.0 beta (build 457) - by Dester - opdester@freemail.hu
~~~~~~~~~~~~~~~~~~~~~~~~~~~~~~~~~~
Started at: пятница, 19. 06. 2015. - 14:10.09
1 file found
1 -===- D:\Torrent files\Axel Rudi Pell - 2015 - Magic Moments - 25th Anniversary Special Show (3CD)\CD1\Axel Rudi Pell - Magic Moments - 25th Anniversary Special Show CD1.flac
  Extracted successfully
  Conclusion: this track is CDDA with probability 100%
  Tempfile successfully deleted.
Finished at: пятница, 19. 06. 2015. - 14:12.04 (operation time: 0:01.54)

CD 2

AUDIOCHECKER v2.0 beta (build 457) - by Dester - opdester@freemail.hu
~~~~~~~~~~~~~~~~~~~~~~~~~~~~~~~~~~
Started at: пятница, 19. 06. 2015. - 14:13.00
1 file found
1 -===- D:\Torrent files\Axel Rudi Pell - 2015 - Magic Moments - 25th Anniversary Special Show (3CD)\CD2\Axel Rudi Pell - 25th Anniversary Special Show CD2.flac
  Extracted successfully
  Conclusion: this track is CDDA with probability 100%
  Tempfile successfully deleted.
Finished at: пятница, 19. 06. 2015. - 14:16.54 (operation time: 0:03.54)

CD 3

AUDIOCHECKER v2.0 beta (build 457) - by Dester - opdester@freemail.hu
~~~~~~~~~~~~~~~~~~~~~~~~~~~~~~~~~~
Started at: пятница, 19. 06. 2015. - 14:17.24
1 file found
1 -===- D:\Torrent files\Axel Rudi Pell - 2015 - Magic Moments - 25th Anniversary Special Show (3CD)\CD3\Axel Rudi Pell - 25th Anniversary Special Show CD3.flac
  Extracted successfully
  Conclusion: this track is CDDA with probability 100%
  Tempfile successfully deleted.
Finished at: пятница, 19. 06. 2015. - 14:20.35 (operation time: 0:03.10)

биография краткая:

Axel Rudi Pell
Многие известные рок-музыканты не обладают особой фантазией, называя группы своим собственным именем. Не стал исключением и немецкий гитарист Аксель Руди Пелл (р. 27 июня 1960), начинавший когда-то свою деятельность в метал-банде Steeler. После расставания со «Стилером» Пелл тут же организовал собственный проект и гордо нарек его Axel Rudi Pell. В настоящее время это уже довольно солидный колектив учитывая многолетний стаж группы и немалую известность в мире.
К себе в компанию Аксель подобрал довольно известных музыкантов – в первый состав ARP вошли ударник Йорг Майкл (Rage, Mekong Delta), вокалист Чарли Хан (Gary Moore, Victory), басисты Волкер Кравчак (Steeler) и Йорг Дейзингер (Bonfire). Уже с первого диска стали четко ясны ориентиры Пелла – гитарист вел свою команду курсом, проложенным Ричи Блэкмором во времена Rainbow. Мелодичный металл с примесью неоклассики и сентиментальными хуками – таков рецепт практически всех альбомов ARP.
Вторая пластинка, «Nasty Reputation», записывалась уже с Робом Роком у микрофона, однако после релиза этот вокалист вернулся в Impellitteri. Пришлось срочно подыскивать нового фронтмена, и оставшуюся часть промо-тура группа доигрывала с бывшим партнером Мальмстина Джеффом Скоттом Сото.
С приходом Джеффа костяк банды надолго стабилизировался, и дальнейшие рокировки касались лишь клавишников. В 1993 году Пелл приступил к завоеванию женской аудитории, выпустив сборник баллад с соответствующим названием. Прекрасным дамам идея пришлась по вкусу, и в дальнейшем гитарист со своей группой продолжил клепать диски из этой серии. Между тем Axel Rudi Pell заняли неплохое место на немецкой металлической сцене и, начиная с 1994 года, практически каждый их студийный альбом проводил в национальных чартах не менее двух недель. В 1998 году коллективу все же пришлось расстаться с Сото, а вместо него Аксель представил публике экс-вокалиста Hardline Джонни Джиоэли.
Одновременно в команде появился клавишник Ферди Дорнберг, сменивший на этом посту Кристиана Вольфа. На этом кадровые перестановки не закончились, т.к. после выхода «Oceans Of Time» группу покинул Йорг Майкл. Но ударная установка пустовала недолго, и уже в декабрьском турне 1998 года ее оккупировал бывший коллега Ингви Мальмстина и Тони МакАлпайна Майк Террана. Скопировано с Dark-World.ru.
После выпуска второй порции слезоточивых баллад Axel Rudi Pell приняли участие в создании альбома, посвященного любимому вокалисту Акселя, Ронни Джеймсу Дио, исполнив классическую вещицу из репертуара Rainbow «Still I’m Sad». В том же 1999-м коллектив провел успешный клубный тур и появился на фестивале в Вакене. На следующий год после выхода «The Masquerade Ball» Пелл решил, что пора обзавестись сборником бестовых вещей и по результатам опроса, проведенного на сайте Axel Rudi Pell, соорудил двойную компиляцию под названием «The Wizards Chosen Few». В 2002-м и в 2004-х годах вышло по два альбома ARP. Но если в первом случае студийная работа сопровождалась выпуском концертника, то во втором ей сопутствовал очередной балладный сборник.
В 2005-м команда Пелла ограничилась фестивальными выступлениями и серией одиночных концертов, а на следующий год вернулась к студийной работе. Альбом «Mystica» занял 27-е место в немецких чартах, всего на пять пунктов не дотянув до рекорда, установленного с «Shadow Zone». Свою очередную пластинку, названную «Diamonds Unlocked», Аксель составил из каверов своих любимых исполнителей.
В феврале 2008 года увидел свет DVD «Live Over Europe». Это богатое издание включало два диска. На первом диске представлено выступление на Rock Hard Festival, которое состоялось 27 мая 2007 года. Второй же диск включает серию неофициальных видео - выступления на таких фестивалях как Sweden Rock Festival (2004), Bang Your Head!!! Festival (2005), Z7 Pratteln (2005), Bloodstock Festival (2006), Wacken Open Air (2005), Zeche Bochum (2006), Graspop Metal Meeting (2005).
В этом же году Аксель и команда выпустили очередную пластинку под названием «Tales Of The Crown». После очень успешного альбома «Mystica» основной задачей группы было не упасть в грязь лицом, не сделать что-то ниже по уровню. Но это уже двенадцатый полноформатник Руди Пелла, рецепт успеха заучен на память, а поклонники с нетерпением ждут новых хитов. Так что «Сказки» были всё так же тепло встречены как прессой, так и аудиторией поклонников.
1 июля 2009 года в честь двадцатилетия группы состоялся релиз пятого по счёту сборника Акселя Руди Пелла - «Best Of - Anniversary Edition». В честь юбилея группы музыканты провели тур по Европе. Одно из таких выступлений, а именно выступление на фестивале Rock Of Ages 31 июля 2009, легло в основу ДВД-издания «One Night Live», релиз которого состоялся в феврале 2010.
Апрель 2010 принёс новую работу от неутомимого Акселя и компании. Альбом «The Crest» записывался на студии W.A.T. в Бохуме. Сразу же после релиза тринадцатого студийника Аксель объявил, что готовит некий сюрприз. Им оказался сборник четвёртая часть баллад от мистера Пелла - «The Ballads IV». Релиз состоялся в конце сентября 2011 года. Альбом сразу же занял высокие позиции в мировых чартах. За первую неделю «Баллады» стали 29-ми в Германии, 53-ми в Швейцарии и 65-ми в Норвегии. На кавер-версию песни «Hallelujah» Леонарда Коэна было отснято видео.
В конце октября 2011 на сайте группы было опубликовано сообщение о том, что Джонни, Майк, Ферди, Волкер и Аксель в конце ноября соберутся в студии под руководством Чарли Боэрфеинда для записи следующего студийного альбома, озаглавленного «Circle Of The Oath».
--Не забываем говорить
[Профиль] [ЛС]
Показать сообщения:    

Текущее время: Сегодня 02:41

Часовой пояс: GMT



Вы не можете начинать темы
Вы не можете отвечать на сообщения
Вы не можете редактировать свои сообщения
Вы не можете удалять свои сообщения
Вы не можете голосовать в опросах
Вы не можете прикреплять файлы к сообщениям
Вы не можете скачивать файлы