Avantasia - Live at Wacken Open Air [2014 г., Sympho/Power/Metal Opera, HDTV] 720p

 
Автор Сообщение

sergej644 ®

Пол:

Стаж: 4 года 11 месяцев

Сообщений: 6040

Откуда: Soviet Union



Награды: Нет

Торрент-статистика

Создавать темы 10-Авг-2014 23:21

[Цитировать]

--Avantasia - Live at Wacken Open Air
Год выпуска: 2014
Страна: Germany
Жанр: Sympho/Power/Metal Opera
Продолжительность: 01:58:24
Описание:
Выступление Avantasia на Wacken Open Air 2014.Запись со спутникового канала 3satHD-Начало карьеры: 1999 г., Германия
Участники: Тобиас Заммет, Саша Паэт, Эрик Сингер

треклист

01. Spectres
02. Invoke The Machine
03. The Scarecrow
04. The Story Ain't Over
05. Reach Out for the Light
06. Avantasia
07. What's Left of Me
08. Dying for an Angel
09. Farewell
10. Shelter from the Rain
11. The Great Mystery
12. Twisted Mind
13. Promised Land
14. Lost in Space
15. Sign of the Cross / The Seven Angels
Качество: HDTV 720p
Формат: TS
Видео кодек: AVC
Аудио кодек: AC3
Видео: AVC, 12,8 Мбит/сек, 1280 x 720 (1.778), 50.000 fps, 0.277 bit/pic
Аудио: AC-3, 448 Кбит/сек, 2 канала, 48,0 КГц, 16 bit
-

MediaInfo

Общее
Идентификатор                            : 1010 (0x3F2)
Полное имя                               : E:\torrent files\Avantasia - Wacken 2014.ts
Формат                                   : MPEG-TS
Размер файла                             : 11,5 Гбайт
Продолжительность                        : 1 ч. 58 м.
Режим общего битрейта                    : Переменный
Общий поток                              : 13,9 Мбит/сек
Видео
Идентификатор                            : 6510 (0x196E)
Идентификатор меню                       : 11150 (0x2B8E)
Формат                                   : AVC
Формат/Информация                        : Advanced Video Codec
Профиль формата                          : High@L4.0
Параметр CABAC формата                   : Да
Параметр ReFrames формата                : 6 кадров
Параметр GOP формата                     : M=4, N=29
Идентификатор кодека                     : 27
Продолжительность                        : 1 ч. 58 м.
Битрейт                                  : 12,8 Мбит/сек
Ширина                                   : 1280 пикселей
Высота                                   : 720 пикселей
Соотношение сторон                       : 16:9
Частота кадров                           : 50,000 кадров/сек
Цветовое пространство                    : YUV
Субдискретизация насыщенности            : 4:2:0
Битовая глубина                          : 8 бит
Тип развёртки                            : Прогрессивная
Бит/(Пиксели*Кадры)                      : 0.277
Размер потока                            : 10,5 Гбайт (92%)
Основные цвета                           : BT.709
Характеристики трансфера                 : BT.709
Коэффициенты матрицы                     : BT.709
Аудио
Идентификатор                            : 6522 (0x197A)
Идентификатор меню                       : 11150 (0x2B8E)
Формат                                   : AC-3
Формат/Информация                        : Audio Coding 3
Расширение режима                        : CM (complete main)
Параметр Endianness формата              : Big
Идентификатор кодека                     : 6
Продолжительность                        : 1 ч. 58 м.
Вид битрейта                             : Постоянный
Битрейт                                  : 448 Кбит/сек
Каналы                                   : 2 канала
Расположение каналов                     : Front: L R
Частота                                  : 48,0 КГц
Битовая глубина                          : 16 бит
Метод сжатия                             : С потерями
Задержка видео                           : 67 мс.
Размер потока                            : 379 Мбайт (3%)
Язык                                     : German
-

скриншоты

--
[Профиль] [ЛС]
Кто просматривает тему:

Форум Тема Автор Размер
Metal (Symphonic Power Metal) Avantasia - Ghostlights (Limited Edition 2CD) - 2016 [FLAC, image +.cue, lossless] sergej644 1.05 GB
Показать сообщения:    

Текущее время: Сегодня 00:47

Часовой пояс: GMT



Вы не можете начинать темы
Вы не можете отвечать на сообщения
Вы не можете редактировать свои сообщения
Вы не можете удалять свои сообщения
Вы не можете голосовать в опросах
Вы не можете прикреплять файлы к сообщениям
Вы не можете скачивать файлы