(Symphonic Power Metal) Avantasia - Ghostlights (Limited Edition 2CD) - 2016 [FLAC, image +.cue, lossless]

 
Автор Сообщение

sergej644 ®

Пол:

Стаж: 4 года 11 месяцев

Сообщений: 6041

Откуда: Soviet Union



Награды: Нет

Торрент-статистика

Создавать темы 03-Фев-2016 14:56

[Цитировать]

-Avantasia - Ghostlights (Limited Edition 2CD)--
Год издания: 2016
Страна: Germany
Жанр: Symphonic Power Metal
Продолжительность: 02:14:07-Лейбл издания: Nuclear Blast Records
Страна-выпуска диска: Germany
Номер по каталогу: 27361 36350-Формат: FLAC
Битрейт аудио: Lossless
Тип рипа: image +.cue
Наличие сканов в содержимом раздачи: да
-

Трэклист

CD 1 | 01:15:13


01. Mystery Of A Blood Red Rose (03:52)
02. Let The Storm Descend Upon You (12:11)
03. The Haunting (04:43)
04. Seduction Of Decay (07:19)
05. Ghostlights (05:46)
06. Draconian Love (05:00)
07. Master Of The Pendulum (05:05)
08. Isle Of Evermore (04:30)
09. Babylon Vampyres (07:14)
10. Lucifer (03:52)
11. Unchain The Light (05:07)
12. A Restless Heart And Obsidian Skies (05:56)
13. Wake Up To The Moon (Bonus Track) (04:44)

CD 2 (Bonus Live CD) | 00:58:55


01. Spectres (06:05)
02. Invoke The Machine (05:36)
03. The Story Ain't Over (04:46)
04. Prelude (01:25)
05. Reach Out For The Light (08:05)
06. Avantasia (05:17)
07. What's Left Of Me (05:56)
08. Dying For An Angel (04:59)
09. Twisted Mind (06:30)
10. The Watchmaker's Dream (04:48)
11. Another Angel Down (05:31)
-

Лог создания рипа

CD 1

Exact Audio Copy V1.1 from 23. June 2015
EAC extraction logfile from 27. January 2016, 20:44
Avantasia / Ghostlights
Used drive  : ATAPI   iHAS122   W   Adapter: 2  ID: 0
Read mode               : Secure
Utilize accurate stream : Yes
Defeat audio cache      : Yes
Make use of C2 pointers : No
Read offset correction                      : 48
Overread into Lead-In and Lead-Out          : No
Fill up missing offset samples with silence : Yes
Delete leading and trailing silent blocks   : No
Null samples used in CRC calculations       : Yes
Used interface                              : Installed external ASPI interface
Used output format              : User Defined Encoder
Selected bitrate                : 1024 kBit/s
Quality                         : High
Add ID3 tag                     : No
Command line compressor         : C:\Program Files\FLAC\flac.exe
Additional command line options : -V -8 -T "Date=%year%" -T "Genre=%genre%" -T"COMMENT=Ripped by  Ilijan" -8 -V %source%
TOC of the extracted CD
     Track |   Start  |  Length  | Start sector | End sector
    ---------------------------------------------------------
        1  |  0:00.00 |  3:51.67 |         0    |    17391
        2  |  3:51.67 | 12:10.18 |     17392    |    72159
        3  | 16:02.10 |  4:42.04 |     72160    |    93313
        4  | 20:44.14 |  7:18.12 |     93314    |   126175
        5  | 28:02.26 |  5:45.67 |    126176    |   152117
        6  | 33:48.18 |  4:59.19 |    152118    |   174561
        7  | 38:47.37 |  5:04.63 |    174562    |   197424
        8  | 43:52.25 |  4:29.24 |    197425    |   217623
        9  | 48:21.49 |  7:13.70 |    217624    |   250168
       10  | 55:35.44 |  3:51.31 |    250169    |   267524
       11  | 59:27.00 |  5:06.14 |    267525    |   290488
       12  | 64:33.14 |  5:55.17 |    290489    |   317130
       13  | 70:28.31 |  4:43.55 |    317131    |   338410
Range status and errors
Selected range
     Filename D:\ilко\Avantasia - Ghostlights.wav
     Peak level 98.9 %
     Extraction speed 3.5 X
     Range quality 100.0 %
     Test CRC 5CABCCFA
     Copy CRC 5CABCCFA
     Copy OK
No errors occurred
AccurateRip summary
Track  1  not present in database
Track  2  not present in database
Track  3  not present in database
Track  4  not present in database
Track  5  not present in database
Track  6  not present in database
Track  7  not present in database
Track  8  not present in database
Track  9  not present in database
Track 10  not present in database
Track 11  not present in database
Track 12  not present in database
Track 13  not present in database
None of the tracks are present in the AccurateRip database
End of status report
---- CUETools DB Plugin V2.1.6
[CTDB TOCID: X9P2V.lmal5tw9.8SFXrsVUTO5s-] disk not present in database
Submit result: X9P2V.lmal5tw9.8SFXrsVUTO5s- has been uploaded

CD 2

Exact Audio Copy V1.1 from 23. June 2015
EAC extraction logfile from 27. January 2016, 21:26
Avantasia / Ghostlights Bonus Live CD
Used drive  : ATAPI   iHAS122   W   Adapter: 2  ID: 0
Read mode               : Secure
Utilize accurate stream : Yes
Defeat audio cache      : Yes
Make use of C2 pointers : No
Read offset correction                      : 48
Overread into Lead-In and Lead-Out          : No
Fill up missing offset samples with silence : Yes
Delete leading and trailing silent blocks   : No
Null samples used in CRC calculations       : Yes
Used interface                              : Installed external ASPI interface
Used output format              : User Defined Encoder
Selected bitrate                : 1024 kBit/s
Quality                         : High
Add ID3 tag                     : No
Command line compressor         : C:\Program Files\FLAC\flac.exe
Additional command line options : -V -8 -T "Date=%year%" -T "Genre=%genre%" -T"COMMENT=Ripped by  Ilijan" -8 -V %source%
TOC of the extracted CD
     Track |   Start  |  Length  | Start sector | End sector
    ---------------------------------------------------------
        1  |  0:00.00 |  6:04.22 |         0    |    27321
        2  |  6:04.22 |  5:35.64 |     27322    |    52510
        3  | 11:40.11 |  4:45.31 |     52511    |    73916
        4  | 16:25.42 |  1:24.58 |     73917    |    80274
        5  | 17:50.25 |  8:04.68 |     80275    |   116642
        6  | 25:55.18 |  5:16.41 |    116643    |   140383
        7  | 31:11.59 |  5:55.69 |    140384    |   167077
        8  | 37:07.53 |  4:58.54 |    167078    |   189481
        9  | 42:06.32 |  6:29.35 |    189482    |   218691
       10  | 48:35.67 |  4:47.29 |    218692    |   240245
       11  | 53:23.21 |  5:30.69 |    240246    |   265064
Range status and errors
Selected range
     Filename D:\ilко\Avantasia - Ghostlights Bonus Live CD.wav
     Peak level 100.0 %
     Extraction speed 3.1 X
     Range quality 100.0 %
     Test CRC 4A78C6C3
     Copy CRC 4A78C6C3
     Copy OK
No errors occurred
AccurateRip summary
Track  1  not present in database
Track  2  not present in database
Track  3  not present in database
Track  4  not present in database
Track  5  not present in database
Track  6  not present in database
Track  7  not present in database
Track  8  not present in database
Track  9  not present in database
Track 10  not present in database
Track 11  not present in database
None of the tracks are present in the AccurateRip database
End of status report
---- CUETools DB Plugin V2.1.6
[CTDB TOCID: cRbM9anOOb.Mc4_UL3wxsebi.Yk-] disk not present in database
Submit result: cRbM9anOOb.Mc4_UL3wxsebi.Yk- has been uploaded

Индексная карта (non-compilant .cue)

CD 1

REM GENRE "Symphonic Power Metal"
REM DATE 2016
REM DISCID B611A00D
REM COMMENT "ExactAudioCopy v1.1"
PERFORMER "Avantasia"
TITLE "Ghostlights"
FILE "Avantasia - Ghostlights.flac" WAVE
  TRACK 01 AUDIO
    TITLE "Mystery Of A Blood Red Rose"
    PERFORMER "Avantasia"
    INDEX 01 00:00:00
  TRACK 02 AUDIO
    TITLE "Let The Storm Descend Upon You"
    PERFORMER "Avantasia"
    INDEX 00 03:51:18
    INDEX 01 03:51:67
  TRACK 03 AUDIO
    TITLE "The Haunting"
    PERFORMER "Avantasia"
    INDEX 00 16:01:43
    INDEX 01 16:02:10
  TRACK 04 AUDIO
    TITLE "Seduction Of Decay"
    PERFORMER "Avantasia"
    INDEX 01 20:44:14
  TRACK 05 AUDIO
    TITLE "Ghostlights"
    PERFORMER "Avantasia"
    INDEX 01 28:02:26
  TRACK 06 AUDIO
    TITLE "Draconian Love"
    PERFORMER "Avantasia"
    INDEX 00 33:45:73
    INDEX 01 33:48:18
  TRACK 07 AUDIO
    TITLE "Master Of The Pendulum"
    PERFORMER "Avantasia"
    INDEX 00 38:46:69
    INDEX 01 38:47:37
  TRACK 08 AUDIO
    TITLE "Isle Of Evermore"
    PERFORMER "Avantasia"
    INDEX 00 43:49:07
    INDEX 01 43:52:25
  TRACK 09 AUDIO
    TITLE "Babylon Vampyres"
    PERFORMER "Avantasia"
    INDEX 00 48:20:58
    INDEX 01 48:21:49
  TRACK 10 AUDIO
    TITLE "Lucifer"
    PERFORMER "Avantasia"
    INDEX 00 55:30:64
    INDEX 01 55:35:44
  TRACK 11 AUDIO
    TITLE "Unchain The Light"
    PERFORMER "Avantasia"
    INDEX 00 59:24:32
    INDEX 01 59:27:00
  TRACK 12 AUDIO
    TITLE "A Restless Heart And Obsidian Skies"
    PERFORMER "Avantasia"
    INDEX 00 64:30:00
    INDEX 01 64:33:14
  TRACK 13 AUDIO
    TITLE "Wake Up To The Moon (Bonus Track)"
    PERFORMER "Avantasia"
    INDEX 00 70:26:31
    INDEX 01 70:28:31

CD 2

REM GENRE "Symphonic Power Metal"
REM DATE 2016
REM DISCID 9E0DCE0B
REM COMMENT "ExactAudioCopy v1.1"
PERFORMER "Avantasia"
TITLE "Ghostlights Bonus Live CD"
FILE "Avantasia - Ghostlights Bonus Live CD.flac" WAVE
  TRACK 01 AUDIO
    TITLE "Spectres"
    PERFORMER "Avantasia"
    INDEX 01 00:00:00
  TRACK 02 AUDIO
    TITLE "Invoke The Machine"
    PERFORMER "Avantasia"
    INDEX 00 05:35:02
    INDEX 01 06:04:22
  TRACK 03 AUDIO
    TITLE "The Story Ain't Over"
    PERFORMER "Avantasia"
    INDEX 01 11:40:11
  TRACK 04 AUDIO
    TITLE "Prelude"
    PERFORMER "Avantasia"
    INDEX 01 16:25:42
  TRACK 05 AUDIO
    TITLE "Reach Out For The Light"
    PERFORMER "Avantasia"
    INDEX 01 17:50:25
  TRACK 06 AUDIO
    TITLE "Avantasia"
    PERFORMER "Avantasia"
    INDEX 00 24:37:03
    INDEX 01 25:55:18
  TRACK 07 AUDIO
    TITLE "What's Left Of Me"
    PERFORMER "Avantasia"
    INDEX 01 31:11:59
  TRACK 08 AUDIO
    TITLE "Dying For An Angel"
    PERFORMER "Avantasia"
    INDEX 00 35:54:50
    INDEX 01 37:07:53
  TRACK 09 AUDIO
    TITLE "Twisted Mind"
    PERFORMER "Avantasia"
    INDEX 01 42:06:32
  TRACK 10 AUDIO
    TITLE "The Watchmaker's Dream"
    PERFORMER "Avantasia"
    INDEX 00 48:33:12
    INDEX 01 48:35:67
  TRACK 11 AUDIO
    TITLE "Another Angel Down"
    PERFORMER "Avantasia"
    INDEX 00 53:21:03
    INDEX 01 53:23:21
--
[Профиль] [ЛС]
Показать сообщения:    

Текущее время: Сегодня 03:11

Часовой пояс: GMT



Вы не можете начинать темы
Вы не можете отвечать на сообщения
Вы не можете редактировать свои сообщения
Вы не можете удалять свои сообщения
Вы не можете голосовать в опросах
Вы не можете прикреплять файлы к сообщениям
Вы не можете скачивать файлы