(Author's Song/Chanson) Александр Розенбаум - Музыка Стихов. Избранное (5CD box) Подарочное издание - 2011,flac(image+.cue), lossless

 
Автор Сообщение

sergej644 ®

Пол:

Стаж: 4 года 11 месяцев

Сообщений: 6035

Откуда: Soviet Union



Награды: Нет

Торрент-статистика

Создавать темы 29-Июл-2014 11:31

[Цитировать]

-Александр Розенбаум - Музыка Стихов. Избранное (5CD box)- Жанр: Author's Song / Chanson || Страна-производитель дисков: Россия || Год издания дисков: 2011 || Издатель (лейбл): ЗАО "Компания АЛРОЗ" || Аудио кодек: FLAC (*.flac) || Тип рипа: image+.cue || Битрейт аудио: lossless || Наличие сканов в содержимом раздачи: 600 dpi, JPG-

Диск 1: Заходите к нам на огонёк

Заходите к нам на огонёк Продолжительность: 1:17:17--Треклист:
[01. Заходите к нам на огонёк
02. Гоп-стоп
03. Фраер, толстый фраер…
04. Азохен вэй! Шалом алейхем, Крейцман!..
05. А ну-ка сделайте мне фото, месье Жан
06. Я Семен – в законе вор
07. Открылась дверь, и я в момент растаял…
08. Меня не посадить
09. Песня налётчиков
10. Свадьба
11. Маня
12. Мы с ним росли в одном дворе
13. Зойка
14. Лесосплав
15. Нинка, как картинка…
16. Мне пел-нашёптывал начальник из сыскной…
17. Амнистия
18. От звонка до звонка
19. Извозчик
20. Червончики
21. Лиговка
--

Лог создания рипа

Exact Audio Copy V1.0 beta 3 from 29. August 2011
EAC extraction logfile from 25. February 2012, 0:05
Александр Розенбаум / Заходите к нам на огонёк
Used drive  : PIONEER DVD-RW  DVR-212   Adapter: 8  ID: 0
Read mode               : Secure
Utilize accurate stream : Yes
Defeat audio cache      : Yes
Make use of C2 pointers : No
Read offset correction                      : 48
Overread into Lead-In and Lead-Out          : No
Fill up missing offset samples with silence : Yes
Delete leading and trailing silent blocks   : No
Null samples used in CRC calculations       : Yes
Used interface                              : Installed external ASPI interface
Used output format : Internal WAV Routines
Sample format      : 44.100 Hz; 16 Bit; Stereo
TOC of the extracted CD
     Track |   Start  |  Length  | Start sector | End sector
    ---------------------------------------------------------
        1  |  0:00.00 |  2:29.65 |         0    |    11239
        2  |  2:29.65 |  4:50.17 |     11240    |    33006
        3  |  7:20.07 |  3:31.70 |     33007    |    48901
        4  | 10:52.02 |  3:15.27 |     48902    |    63553
        5  | 14:07.29 |  4:12.19 |     63554    |    82472
        6  | 18:19.48 |  3:34.03 |     82473    |    98525
        7  | 21:53.51 |  4:20.66 |     98526    |   118091
        8  | 26:14.42 |  5:28.24 |    118092    |   142715
        9  | 31:42.66 |  3:21.58 |    142716    |   157848
       10  | 35:04.49 |  3:46.58 |    157849    |   174856
       11  | 38:51.32 |  2:16.17 |    174857    |   185073
       12  | 41:07.49 |  2:18.38 |    185074    |   195461
       13  | 43:26.12 |  3:01.24 |    195462    |   209060
       14  | 46:27.36 |  3:25.37 |    209061    |   224472
       15  | 49:52.73 |  4:26.41 |    224473    |   244463
       16  | 54:19.39 |  4:49.43 |    244464    |   266181
       17  | 59:09.07 |  3:39.43 |    266182    |   282649
       18  | 62:48.50 |  2:04.61 |    282650    |   292010
       19  | 64:53.36 |  4:00.35 |    292011    |   310045
       20  | 68:53.71 |  3:57.12 |    310046    |   327832
       21  | 72:51.08 |  4:25.41 |    327833    |   347748
Range status and errors
Selected range
     Filename M:\FLAC (bruk67)\Chanson\Александр Розенбаум - Музыка Стихов (5CD box) Подарочное издание\Диск 1 - Заходите к нам на огонёк\Александр Розенбаум - Заходите к нам на огонёк.wav
     Peak level 100.0 %
     Extraction speed 8.0 X
     Range quality 99.9 %
     Test CRC EF450E4B
     Copy CRC EF450E4B
     Copy OK
No errors occurred
AccurateRip summary
Track  1  not present in database
Track  2  not present in database
Track  3  not present in database
Track  4  not present in database
Track  5  not present in database
Track  6  not present in database
Track  7  not present in database
Track  8  not present in database
Track  9  not present in database
Track 10  not present in database
Track 11  not present in database
Track 12  not present in database
Track 13  not present in database
Track 14  not present in database
Track 15  not present in database
Track 16  not present in database
Track 17  not present in database
Track 18  not present in database
Track 19  not present in database
Track 20  not present in database
Track 21  not present in database
None of the tracks are present in the AccurateRip database
End of status report
---- CUETools DB Plugin V2.1.3
[CTDB TOCID: Yc_crHlk8klvCcF9WZg4u_WmQdI-] disk not present in database, Submit result: Yc_crHlk8klvCcF9WZg4u_WmQdI- has been uploaded

Скриншот спектра частот

Диск 2: Белая ночь

Белая ночь Продолжительность: 1:15:50--Треклист:
01. Налетела грусть
02. Вальс-бостон
03. Послепобедный вальс
04. По снегу, летящему с неба
05. Вещая судьба
06. На дороге жизни
07. Памяти Романа Казакова
08. Осень
09. Белая ночь
10. Вальс 37-го года
11. Нарисуйте мне дом
12. Декабристский сон
13. Прогулка по Невскому
14. Кручина
15. Зимняя ночь
16. Очередь у магазина
17. Расставание
18. Дорога на Ваганьково
19. Окстись
20. Предрассветный вальс
21. Покажите мне Москву
22. Размышление на прогулке
23. Возвращение в город
--

Лог создания рипа

Exact Audio Copy V1.0 beta 3 from 29. August 2011
EAC extraction logfile from 25. February 2012, 0:31
Александр Розенбаум / Белая ночь
Used drive  : PIONEER DVD-RW  DVR-212   Adapter: 8  ID: 0
Read mode               : Secure
Utilize accurate stream : Yes
Defeat audio cache      : Yes
Make use of C2 pointers : No
Read offset correction                      : 48
Overread into Lead-In and Lead-Out          : No
Fill up missing offset samples with silence : Yes
Delete leading and trailing silent blocks   : No
Null samples used in CRC calculations       : Yes
Used interface                              : Installed external ASPI interface
Used output format : Internal WAV Routines
Sample format      : 44.100 Hz; 16 Bit; Stereo
TOC of the extracted CD
     Track |   Start  |  Length  | Start sector | End sector
    ---------------------------------------------------------
        1  |  0:00.00 |  2:34.10 |         0    |    11559
        2  |  2:34.10 |  3:37.59 |     11560    |    27893
        3  |  6:11.69 |  3:09.03 |     27894    |    42071
        4  |  9:20.72 |  3:03.42 |     42072    |    55838
        5  | 12:24.39 |  3:47.19 |     55839    |    72882
        6  | 16:11.58 |  2:33.08 |     72883    |    84365
        7  | 18:44.66 |  3:47.27 |     84366    |   101417
        8  | 22:32.18 |  3:24.56 |    101418    |   116773
        9  | 25:56.74 |  3:30.42 |    116774    |   132565
       10  | 29:27.41 |  2:49.20 |    132566    |   145260
       11  | 32:16.61 |  3:59.55 |    145261    |   163240
       12  | 36:16.41 |  3:11.60 |    163241    |   177625
       13  | 39:28.26 |  3:05.21 |    177626    |   191521
       14  | 42:33.47 |  3:43.62 |    191522    |   208308
       15  | 46:17.34 |  1:57.70 |    208309    |   217153
       16  | 48:15.29 |  4:04.36 |    217154    |   235489
       17  | 52:19.65 |  3:27.19 |    235490    |   251033
       18  | 55:47.09 |  3:22.09 |    251034    |   266192
       19  | 59:09.18 |  2:41.14 |    266193    |   278281
       20  | 61:50.32 |  3:34.18 |    278282    |   294349
       21  | 65:24.50 |  3:13.50 |    294350    |   308874
       22  | 68:38.25 |  4:44.26 |    308875    |   330200
       23  | 73:22.51 |  2:27.16 |    330201    |   341241
Range status and errors
Selected range
     Filename M:\FLAC (bruk67)\Chanson\Александр Розенбаум - Музыка Стихов (5CD box) Подарочное издание\Диск 2 - Белая ночь\Александр Розенбаум - Белая ночь.wav
     Peak level 99.9 %
     Extraction speed 7.9 X
     Range quality 100.0 %
     Test CRC 08CCC92D
     Copy CRC 08CCC92D
     Copy OK
No errors occurred
AccurateRip summary
Track  1  not present in database
Track  2  not present in database
Track  3  not present in database
Track  4  not present in database
Track  5  not present in database
Track  6  not present in database
Track  7  not present in database
Track  8  not present in database
Track  9  not present in database
Track 10  not present in database
Track 11  not present in database
Track 12  not present in database
Track 13  not present in database
Track 14  not present in database
Track 15  not present in database
Track 16  not present in database
Track 17  not present in database
Track 18  not present in database
Track 19  not present in database
Track 20  not present in database
Track 21  not present in database
Track 22  not present in database
Track 23  not present in database
None of the tracks are present in the AccurateRip database
End of status report
---- CUETools DB Plugin V2.1.3
[CTDB TOCID: stzD7fuJ.fYXn3LuHp2rv.iIhUw-] disk not present in database, Submit result: stzD7fuJ.fYXn3LuHp2rv.iIhUw- has been uploaded

Скриншот спектра частот

Диск 3: Воля вольная

Воля вольная Продолжительность: 1:15:56--Треклист:
01. Есаул молоденький
02. Казачья
03. На Дону, на Доне
04. Белая птица удачи
05. Кандальная
06. Кубанская казачья
07. Песня красных конников
08. Отслужи по мне, отслужи
09. Ох, проводи-ка меня, батя, на войну
10. Проводы
11. На войне как на войне
12. Зашуми ты, голова хмельная…
13. Тётя Маня
14. Романс Най-Турса
15. Обыск
16. Хорунжий
17. Романс генерала Чарноты
18. Песня коня цыганских кровей
19. Жеребёнок
20. Ветер-конокрад
21. Если было бы можно…
--

Лог создания рипа

Exact Audio Copy V1.0 beta 3 from 29. August 2011
EAC extraction logfile from 25. February 2012, 1:06
Александр Розенбаум / Воля вольная
Used drive  : PIONEER DVD-RW  DVR-212   Adapter: 8  ID: 0
Read mode               : Secure
Utilize accurate stream : Yes
Defeat audio cache      : Yes
Make use of C2 pointers : No
Read offset correction                      : 48
Overread into Lead-In and Lead-Out          : No
Fill up missing offset samples with silence : Yes
Delete leading and trailing silent blocks   : No
Null samples used in CRC calculations       : Yes
Used interface                              : Installed external ASPI interface
Used output format : Internal WAV Routines
Sample format      : 44.100 Hz; 16 Bit; Stereo
TOC of the extracted CD
     Track |   Start  |  Length  | Start sector | End sector
    ---------------------------------------------------------
        1  |  0:00.00 |  2:43.65 |         0    |    12289
        2  |  2:43.65 |  3:01.51 |     12290    |    25915
        3  |  5:45.41 |  4:26.16 |     25916    |    45881
        4  | 10:11.57 |  3:37.32 |     45882    |    62188
        5  | 13:49.14 |  3:47.24 |     62189    |    79237
        6  | 17:36.38 |  3:22.44 |     79238    |    94431
        7  | 20:59.07 |  3:17.56 |     94432    |   109262
        8  | 24:16.63 |  2:31.07 |    109263    |   120594
        9  | 26:47.70 |  3:08.17 |    120595    |   134711
       10  | 29:56.12 |  2:11.13 |    134712    |   144549
       11  | 32:07.25 |  3:08.00 |    144550    |   158649
       12  | 35:15.25 |  2:42.19 |    158650    |   170818
       13  | 37:57.44 |  2:53.41 |    170819    |   183834
       14  | 40:51.10 |  4:34.10 |    183835    |   204394
       15  | 45:25.20 |  4:04.59 |    204395    |   222753
       16  | 49:30.04 |  5:46.17 |    222754    |   248720
       17  | 55:16.21 |  2:43.46 |    248721    |   260991
       18  | 57:59.67 |  3:29.53 |    260992    |   276719
       19  | 61:29.45 |  3:42.17 |    276720    |   293386
       20  | 65:11.62 |  3:53.42 |    293387    |   310903
       21  | 69:05.29 |  6:50.24 |    310904    |   341677
Range status and errors
Selected range
     Filename M:\FLAC (bruk67)\Chanson\Александр Розенбаум - Музыка Стихов (5CD box) Подарочное издание\Диск 3 - Воля вольная\Александр Розенбаум - Воля вольная.wav
     Peak level 98.8 %
     Extraction speed 7.6 X
     Range quality 99.9 %
     Test CRC 30FC38ED
     Copy CRC 30FC38ED
     Copy OK
No errors occurred
AccurateRip summary
Track  1  not present in database
Track  2  not present in database
Track  3  not present in database
Track  4  not present in database
Track  5  not present in database
Track  6  not present in database
Track  7  not present in database
Track  8  not present in database
Track  9  not present in database
Track 10  not present in database
Track 11  not present in database
Track 12  not present in database
Track 13  not present in database
Track 14  not present in database
Track 15  not present in database
Track 16  not present in database
Track 17  not present in database
Track 18  not present in database
Track 19  not present in database
Track 20  not present in database
Track 21  not present in database
None of the tracks are present in the AccurateRip database
End of status report
---- CUETools DB Plugin V2.1.3
[CTDB TOCID: dnTzDaoKf1BQW88IRUkrJ1MG_.s-] found, Submit result: dnTzDaoKf1BQW88IRUkrJ1MG_.s- has been confirmed
[4a3d0caa] (1/1) Accurately ripped

Скриншот спектра частот

Диск 4: Серебряный кувшин

Серебряный кувшин Продолжительность: 1:19:53--Треклист:
01. Шпрейх-шталмейстер
02. 101-й километр
03. Прости-прощай
04. Облака (с Л. Успенской)
05. Чемоданчик
06. Сусуманская лирическая
07. Попутчик
08. Песня еврейского портного
09. Скрипач Моня
10. Серебряный кувшин
11. Там, куда спешу
12. Вечерняя застольная
13. Любовь и крыша
14. Грачи
15. Гулливер
16. Грустная история
17. Очередь за хлебом
18. День ВМФ
19. Марш музыкантского спецназа
--

Лог создания рипа

Exact Audio Copy V1.0 beta 3 from 29. August 2011
EAC extraction logfile from 25. February 2012, 1:35
Александр Розенбаум / Серебряный кувшин
Used drive  : PIONEER DVD-RW  DVR-212   Adapter: 8  ID: 0
Read mode               : Secure
Utilize accurate stream : Yes
Defeat audio cache      : Yes
Make use of C2 pointers : No
Read offset correction                      : 48
Overread into Lead-In and Lead-Out          : No
Fill up missing offset samples with silence : Yes
Delete leading and trailing silent blocks   : No
Null samples used in CRC calculations       : Yes
Used interface                              : Installed external ASPI interface
Used output format : Internal WAV Routines
Sample format      : 44.100 Hz; 16 Bit; Stereo
TOC of the extracted CD
     Track |   Start  |  Length  | Start sector | End sector
    ---------------------------------------------------------
        1  |  0:00.00 |  3:11.50 |         0    |    14374
        2  |  3:11.50 |  2:54.42 |     14375    |    27466
        3  |  6:06.17 |  3:35.23 |     27467    |    43614
        4  |  9:41.40 |  4:52.69 |     43615    |    65583
        5  | 14:34.34 |  4:12.32 |     65584    |    84515
        6  | 18:46.66 |  4:43.02 |     84516    |   105742
        7  | 23:29.68 |  4:44.42 |    105743    |   127084
        8  | 28:14.35 |  2:29.06 |    127085    |   138265
        9  | 30:43.41 |  2:49.36 |    138266    |   150976
       10  | 33:33.02 |  6:01.35 |    150977    |   178086
       11  | 39:34.37 |  4:30.48 |    178087    |   198384
       12  | 44:05.10 |  4:28.43 |    198385    |   218527
       13  | 48:33.53 |  4:34.35 |    218528    |   239112
       14  | 53:08.13 |  5:36.11 |    239113    |   264323
       15  | 58:44.24 |  2:53.17 |    264324    |   277315
       16  | 61:37.41 |  5:26.40 |    277316    |   301805
       17  | 67:04.06 |  4:15.30 |    301806    |   320960
       18  | 71:19.36 |  4:12.22 |    320961    |   339882
       19  | 75:31.58 |  4:21.01 |    339883    |   359458
Range status and errors
Selected range
     Filename M:\FLAC (bruk67)\Chanson\Александр Розенбаум - Музыка Стихов (5CD box) Подарочное издание\Диск 4 - Серебряный кувшин\Александр Розенбаум - Серебряный кувшин.wav
     Peak level 98.8 %
     Extraction speed 8.0 X
     Range quality 99.9 %
     Test CRC 5D3CCE45
     Copy CRC 5D3CCE45
     Copy OK
No errors occurred
AccurateRip summary
Track  1  not present in database
Track  2  not present in database
Track  3  not present in database
Track  4  not present in database
Track  5  not present in database
Track  6  not present in database
Track  7  not present in database
Track  8  not present in database
Track  9  not present in database
Track 10  not present in database
Track 11  not present in database
Track 12  not present in database
Track 13  not present in database
Track 14  not present in database
Track 15  not present in database
Track 16  not present in database
Track 17  not present in database
Track 18  not present in database
Track 19  not present in database
None of the tracks are present in the AccurateRip database
End of status report
---- CUETools DB Plugin V2.1.3
[CTDB TOCID: o0PU6vZ3w6.EJ3IpKapS4TYybhE-] disk not present in database, Submit result: o0PU6vZ3w6.EJ3IpKapS4TYybhE- has been uploaded

Скриншот спектра частот

Диск 5: Я хотел бы подарить тебе песню…

Я хотел бы подарить тебе песню… Продолжительность: 1:15:37--Треклист:
01. 38 узлов
02. По первому сроку
03. Я корабль конвоя
04. Бабий Яр
05. Камикадзе
06. Дорога длиною в жизнь
07. В горах Афгани
08. Монолог пилота «Чёрного тюльпана»
09. Первый-второй
10. Здравствуй, сержант!
11. А, может, не было войны?
12. Ау
13. Где-нибудь, как-нибудь
14. На плантациях любви
15. Необычно, незнакомо
16. Зима
17. Глухари
18. Серый в яблоках конь
19. Мой двор
20. Утиная охота
--

Лог создания рипа

Exact Audio Copy V1.0 beta 3 from 29. August 2011
EAC extraction logfile from 25. February 2012, 2:10
Александр Розенбаум / Я хотел бы подарить тебе песню…
Used drive  : PIONEER DVD-RW  DVR-212   Adapter: 8  ID: 0
Read mode               : Secure
Utilize accurate stream : Yes
Defeat audio cache      : Yes
Make use of C2 pointers : No
Read offset correction                      : 48
Overread into Lead-In and Lead-Out          : No
Fill up missing offset samples with silence : Yes
Delete leading and trailing silent blocks   : No
Null samples used in CRC calculations       : Yes
Used interface                              : Installed external ASPI interface
Used output format : Internal WAV Routines
Sample format      : 44.100 Hz; 16 Bit; Stereo
TOC of the extracted CD
     Track |   Start  |  Length  | Start sector | End sector
    ---------------------------------------------------------
        1  |  0:00.00 |  2:21.14 |         0    |    10588
        2  |  2:21.14 |  2:36.26 |     10589    |    22314
        3  |  4:57.40 |  2:24.03 |     22315    |    33117
        4  |  7:21.43 |  4:08.51 |     33118    |    51768
        5  | 11:30.19 |  3:21.70 |     51769    |    66913
        6  | 14:52.14 |  4:12.20 |     66914    |    85833
        7  | 19:04.34 |  4:01.23 |     85834    |   103931
        8  | 23:05.57 |  3:52.52 |    103932    |   121383
        9  | 26:58.34 |  1:49.05 |    121384    |   129563
       10  | 28:47.39 |  4:47.51 |    129564    |   151139
       11  | 33:35.15 |  3:54.68 |    151140    |   168757
       12  | 37:30.08 |  4:57.73 |    168758    |   191105
       13  | 42:28.06 |  4:05.02 |    191106    |   209482
       14  | 46:33.08 |  5:35.15 |    209483    |   234622
       15  | 52:08.23 |  3:09.48 |    234623    |   248845
       16  | 55:17.71 |  5:34.69 |    248846    |   273964
       17  | 60:52.65 |  4:13.35 |    273965    |   292974
       18  | 65:06.25 |  3:29.17 |    292975    |   308666
       19  | 68:35.42 |  2:47.59 |    308667    |   321250
       20  | 71:23.26 |  4:13.44 |    321251    |   340269
Range status and errors
Selected range
     Filename M:\FLAC (bruk67)\Chanson\Александр Розенбаум - Музыка Стихов (5CD box) Подарочное издание\Диск 5 - Я хотел бы подарить тебе песню…\Александр Розенбаум - Я хотел бы подарить тебе песню….wav
     Peak level 98.8 %
     Extraction speed 7.9 X
     Range quality 100.0 %
     Test CRC 4C6206AC
     Copy CRC 4C6206AC
     Copy OK
No errors occurred
AccurateRip summary
Track  1  not present in database
Track  2  not present in database
Track  3  not present in database
Track  4  not present in database
Track  5  not present in database
Track  6  not present in database
Track  7  not present in database
Track  8  not present in database
Track  9  not present in database
Track 10  not present in database
Track 11  not present in database
Track 12  not present in database
Track 13  not present in database
Track 14  not present in database
Track 15  not present in database
Track 16  not present in database
Track 17  not present in database
Track 18  not present in database
Track 19  not present in database
Track 20  not present in database
None of the tracks are present in the AccurateRip database
End of status report
---- CUETools DB Plugin V2.1.3
[CTDB TOCID: 8VXtpnYXWyaR4DAqFmzJYow_fcQ-] disk not present in database, Submit result: 8VXtpnYXWyaR4DAqFmzJYow_fcQ- has been uploaded

Скриншот спектра частот

-- --
[Профиль] [ЛС]

Создавать темы 13-Авг-2015 10:28 (спустя 1 год)

Топик был перенесен из форума Отечественная в форум Author's Song
sergej644
 
Кто просматривает тему:

Форум Тема Автор Размер
Author's Song (Author's Song) Александр Розенбаум - Музыка Стихов. Избранное (5CD box) Подарочное издание - 2011, MP3, 320 kbps sergej644 1.1 GB
Шансон, авторская и военная песня (Author's Song) Владимир Высоцкий - Коллекция (New Sound) [15] - 2005 - 2007, MP3 (tracks+image) , 320 kbps sergej644 2.07 GB
Шансон, авторская и военная песня (Author's Song) Владимир Высоцкий - Лучшее (1, 2 Том) (4 CD) - 2008 [MP3, tracks, 320 kbps] sergej644 724 MB
Шансон, авторская и военная песня (Author's Song) Владимир Высоцкий в записях Михаила Шемякина (7CD) - Коллекция - 1996 [MP3, tracks, 320 kbps] sergej644 939 MB
Author's Song (Author's Song) Владимир Высоцкий. Спасибо, что живой (Коллекция изд. Амфора, 11 CD) 2011 - 2012, FLAC (image + .cue), lossless sergej644 2.53 GB
Шансон, авторская и военная песня (Author's Song) Владимир Высоцкий. Спасибо, что живой (Коллекция изд. Амфора, 11 CD) 2011 - 2012, [MP3, tracks, 320 kbps] sergej644 1.05 GB
Author's Song (Author's Song) Высоцкий - Любимые песни и баллады - 2013 [APE, image+.cue, lossless] sergej644 395 MB
Шансон, авторская и военная песня (Author's Song) Игорь Тальков - Collections (8CD) - 1993 - 2001 [FLAC, image+.cue, lossless] sergej644 3.05 GB
Показать сообщения:    

Текущее время: Сегодня 09:57

Часовой пояс: GMT



Вы не можете начинать темы
Вы не можете отвечать на сообщения
Вы не можете редактировать свои сообщения
Вы не можете удалять свои сообщения
Вы не можете голосовать в опросах
Вы не можете прикреплять файлы к сообщениям
Вы не можете скачивать файлы