(Goa Trance, Psytrance) Astral Projection «5 Album's» - 1996-2002, FLAC (image+.cue), lossless

 
Автор Сообщение

sergej644 ®

Пол:

Стаж: 4 года 11 месяцев

Сообщений: 6042

Откуда: Soviet Union



Награды: Нет

Торрент-статистика

Создавать темы 24-Янв-2015 00:27

[Цитировать]

-Жанр: Goa Trance, Psytrance || Годы изданий: 1996-2002
Производитель дисков: Phonokol, Transient Records, Trust In Trance Records, Velvet Inc., Ganesha
Аудио кодек: FLAC || Тип рипа: image+.cue || Битрейт аудио: lossless
Общая продолжительность: 06:10:56 || Источник: CD's
Наличие сканов в содержимом раздачи: да (600dpi)
- - -

Astral Projection - Trust In Trance (Phonokol - 2041-2) - 1996

Жанр: Goa Trance
Страна-производитель диска: Israel
Издатель (лейбл): Phonokol
Номер по каталогу: 2041-2
Аудиокодек: FLAC (*.flac)
Тип рипа: image+.cue
Битрейт аудио: lossless
Продолжительность: 1:15:38
Источник (релизер): CD
Наличие сканов в содержимом раздачи: да
(600dpi)-Треклист:
01. Kabalah (feat. DJ JORG) (09:29)
02. Enlightened Evolution (08:03)
03. The Feelings (07:23)
04. Utopia (09:38)
05. Black & White (07:29)
06. People Can Fly (09:55)
07. Radial Blur (feat. MFG) (07:40)
08. Aurora Borealis (08:05)
09. Still Dreaming (Anything Can Happen) (07:51)
- -

LOG

Exact Audio Copy V1.0 beta 3 from 29. August 2011
EAC extraction logfile from 5. October 2012, 16:51
Astral Projection / Trust In Trance (2041-2)
Used drive  : HL-DT-STDVDRAM GT30N   Adapter: 0  ID: 1
Read mode               : Secure
Utilize accurate stream : Yes
Defeat audio cache      : Yes
Make use of C2 pointers : No
Read offset correction                      : 103
Overread into Lead-In and Lead-Out          : No
Fill up missing offset samples with silence : Yes
Delete leading and trailing silent blocks   : No
Null samples used in CRC calculations       : Yes
Used interface                              : Native Win32 interface for Win NT & 2000
Used output format              : User Defined Encoder
Selected bitrate                : 1024 kBit/s
Quality                         : High
Add ID3 tag                     : No
Command line compressor         : C:\Program Files\Exact Audio Copy\Flac\flac.exe
Additional command line options : -V -8 -T "Genre=%genre%" -T "Artist=%artist%" -T "Title=%title%" -T "Album=%albumtitle%" -T "Date=%year%" -T "Tracknumber=%tracknr%" -T "Comment=%comment%" %source%
TOC of the extracted CD
     Track |   Start  |  Length  | Start sector | End sector
    ---------------------------------------------------------
        1  |  0:00.00 |  9:29.35 |         0    |    42709
        2  |  9:29.35 |  8:03.45 |     42710    |    78979
        3  | 17:33.05 |  7:23.55 |     78980    |   112259
        4  | 24:56.60 |  9:38.60 |    112260    |   155669
        5  | 34:35.45 |  7:29.25 |    155670    |   189369
        6  | 42:04.70 |  9:55.35 |    189370    |   234029
        7  | 52:00.30 |  7:40.25 |    234030    |   268554
        8  | 59:40.55 |  8:05.72 |    268555    |   305001
        9  | 67:46.52 |  7:51.45 |    305002    |   340371
Range status and errors
Selected range
     Filename D:\Laren\ૐ\Astral Projection - Trust In Trance (2041-2).wav
     Peak level 100.0 %
     Extraction speed 2.2 X
     Range quality 100.0 %
     Test CRC 8A784450
     Copy CRC 8A784450
     Copy OK
No errors occurred
AccurateRip summary
Track  1  accurately ripped (confidence 3)  [3DA9BA27]  (AR v1)
Track  2  accurately ripped (confidence 3)  [7ED8BCF6]  (AR v1)
Track  3  accurately ripped (confidence 3)  [EDD2B889]  (AR v1)
Track  4  accurately ripped (confidence 3)  [F6DEEE1D]  (AR v1)
Track  5  accurately ripped (confidence 3)  [447325B8]  (AR v1)
Track  6  accurately ripped (confidence 3)  [D2F780BF]  (AR v1)
Track  7  accurately ripped (confidence 3)  [2B0AA6B8]  (AR v1)
Track  8  accurately ripped (confidence 3)  [EEEEE4DA]  (AR v1)
Track  9  accurately ripped (confidence 3)  [85A35E32]  (AR v1)
All tracks accurately ripped
End of status report
==== Log checksum C65EE25C16DB61093117BE0672792B84446F373F3697B9499FA47281D6FB3094 ====

Astral Projection - The Astral Files (Transient Records - TRANR607CD) - 1997

Жанр: Goa Trance
Страна-производитель диска: England
Год издания: 1997
Издатель (лейбл): Transient Records
Номер по каталогу: TRANR607CD
Аудиокодек: FLAC (*.flac)
Тип рипа: image+.cue
Битрейт аудио: lossless
Продолжительность: 1:16:29
Источник (релизер): CD
Наличие сканов в содержимом раздачи: да
(600dpi)-Треклист:
01. Ionised (07:24)
02. Zero (05:56)
03. Enlightened Evolution (Remix) (07:20)
04. Free Tibet (07:40)
05. Maian Dream (07:02)
06. Kabalah (New Age Mix) (09:05)
07. Time Began With the Universe (The End of Time Mix) (07:24)
08. Utopia (Concept Remix) (07:49)
09. Electronic (09:04)
10. Ambience (07:42)
- -

LOG

Exact Audio Copy V1.0 beta 3 from 29. August 2011
EAC extraction logfile from 25. February 2013, 11:06
Astral Projection / The Astral Files
Used drive  : HL-DT-STDVDRAM GT30N   Adapter: 0  ID: 1
Read mode               : Secure
Utilize accurate stream : Yes
Defeat audio cache      : Yes
Make use of C2 pointers : No
Read offset correction                      : 103
Overread into Lead-In and Lead-Out          : No
Fill up missing offset samples with silence : Yes
Delete leading and trailing silent blocks   : No
Null samples used in CRC calculations       : Yes
Used interface                              : Native Win32 interface for Win NT & 2000
Used output format              : User Defined Encoder
Selected bitrate                : 1024 kBit/s
Quality                         : High
Add ID3 tag                     : No
Command line compressor         : C:\Program Files\Exact Audio Copy\Flac\flac.exe
Additional command line options : -V -8 -T "Genre=%genre%" -T "Artist=%artist%" -T "Title=%title%" -T "Album=%albumtitle%" -T "Date=%year%" -T "Tracknumber=%tracknr%" -T "Comment=%comment%" %source%
TOC of the extracted CD
     Track |   Start  |  Length  | Start sector | End sector
    ---------------------------------------------------------
        1  |  0:00.00 |  7:24.67 |         0    |    33366
        2  |  7:24.67 |  5:56.08 |     33367    |    60074
        3  | 13:21.00 |  7:20.25 |     60075    |    93099
        4  | 20:41.25 |  7:40.22 |     93100    |   127621
        5  | 28:21.47 |  7:02.43 |    127622    |   159314
        6  | 35:24.15 |  9:05.35 |    159315    |   200224
        7  | 44:29.50 |  7:24.05 |    200225    |   233529
        8  | 51:53.55 |  7:49.05 |    233530    |   268709
        9  | 59:42.60 |  9:04.70 |    268710    |   309579
       10  | 68:47.55 |  7:42.17 |    309580    |   344246
Range status and errors
Selected range
     Filename D:\Laren\ૐ\Astral Projection - The Astral Files.wav
     Peak level 99.0 %
     Extraction speed 2.3 X
     Range quality 100.0 %
     Test CRC E4FEB71E
     Copy CRC E4FEB71E
     Copy OK
No errors occurred
AccurateRip summary
Track  1  accurately ripped (confidence 3)  [55750595]  (AR v2)
Track  2  accurately ripped (confidence 3)  [BA4DAA8C]  (AR v2)
Track  3  accurately ripped (confidence 3)  [5D14B583]  (AR v2)
Track  4  accurately ripped (confidence 3)  [6682E680]  (AR v2)
Track  5  accurately ripped (confidence 3)  [9BB04F1D]  (AR v2)
Track  6  accurately ripped (confidence 3)  [E5B88FB4]  (AR v2)
Track  7  accurately ripped (confidence 3)  [203DCD64]  (AR v2)
Track  8  accurately ripped (confidence 3)  [3C1BFD89]  (AR v2)
Track  9  accurately ripped (confidence 3)  [E367C90F]  (AR v2)
Track 10  accurately ripped (confidence 3)  [90768C78]  (AR v2)
All tracks accurately ripped
End of status report
==== Log checksum 912E073B5083EC9029BB358D3560C6787945CF22A73996238A1CCBCA8EA185BE ====

Astral Projection - Dancing Galaxy (Trust In Trance Records ‎- TIT CD012) - 1997

Жанр: Goa Trance
Страна-производитель диска: Israel
Издатель (лейбл): Trust In Trance Records
Номер по каталогу: TIT CD012, 2089-2
Аудиокодек: FLAC (*.flac)
Тип рипа: image+.cue
Битрейт аудио: lossless
Продолжительность: 1:19:53
Источник (релизер): CD
Наличие сканов в содержимом раздачи: да
(600dpi)-Треклист:

01. Dancing Galaxy (09:18)
02. Soundform (08:12)
03. Flying Into A Star (09:45)
04. No One Ever Dreams (08:24)
05. Cosmic Ascension (10:19)
06. Life On Mars (09:08)
07. Liquid Sun (11:00)
08. Ambient Galaxy (Disco Valley Mix) (13:44)
- -

LOG

Exact Audio Copy V1.0 beta 3 from 29. August 2011
EAC extraction logfile from 14. November 2013, 18:30
Astral Projection / Dancing Galaxy (2089-2)
Used drive  : HL-DT-STDVDRAM GT30N   Adapter: 0  ID: 1
Read mode               : Secure
Utilize accurate stream : Yes
Defeat audio cache      : Yes
Make use of C2 pointers : No
Read offset correction                      : 103
Overread into Lead-In and Lead-Out          : No
Fill up missing offset samples with silence : Yes
Delete leading and trailing silent blocks   : No
Null samples used in CRC calculations       : Yes
Used interface                              : Native Win32 interface for Win NT & 2000
Used output format              : User Defined Encoder
Selected bitrate                : 1024 kBit/s
Quality                         : High
Add ID3 tag                     : No
Command line compressor         : C:\Program Files\Exact Audio Copy\Flac\flac.exe
Additional command line options : -V -8 -T "Date=%year%" -T "Genre=%genre%" -T "COMMENT=SpaceWalker" %source%
TOC of the extracted CD
     Track |   Start  |  Length  | Start sector | End sector
    ---------------------------------------------------------
        1  |  0:00.00 |  9:18.27 |         0    |    41876
        2  |  9:18.27 |  8:12.03 |     41877    |    78779
        3  | 17:30.30 |  9:45.35 |     78780    |   122689
        4  | 27:15.65 |  8:24.70 |    122690    |   160559
        5  | 35:40.60 | 10:19.02 |    160560    |   206986
        6  | 45:59.62 |  9:08.63 |    206987    |   248149
        7  | 55:08.50 | 11:00.32 |    248150    |   297681
        8  | 66:09.07 | 13:44.53 |    297682    |   359534
Range status and errors
Selected range
     Filename D:\Laren\GoaTrance\Astral Projection - Dancing Galaxy (2089-2).wav
     Peak level 100.0 %
     Extraction speed 2.3 X
     Range quality 100.0 %
     Test CRC 132EFBAA
     Copy CRC 132EFBAA
     Copy OK
No errors occurred
AccurateRip summary
Track  1  accurately ripped (confidence 5)  [E887AF06]  (AR v1)
Track  2  accurately ripped (confidence 5)  [904F246B]  (AR v1)
Track  3  accurately ripped (confidence 5)  [F11D2360]  (AR v1)
Track  4  accurately ripped (confidence 5)  [DAF06F67]  (AR v1)
Track  5  accurately ripped (confidence 5)  [5E4AF7E5]  (AR v1)
Track  6  accurately ripped (confidence 5)  [0CB0FE01]  (AR v1)
Track  7  accurately ripped (confidence 5)  [9F4C1942]  (AR v1)
Track  8  accurately ripped (confidence 5)  [FCFC9966]  (AR v1)
All tracks accurately ripped
End of status report
==== Log checksum 0DAF7B792EE8D98FDCD58042D139D6BC5FB903BBC73CD5421B8593DBD4B7DF2F ====

Astral Projection - Another World (Velvet Inc. ‎- NTD 92503-22) - 1999

Жанр: Goa Trance
Страна-производитель диска: Germany
Издатель (лейбл): Velvet Inc.
Номер по каталогу: NTD 92503-22
Аудиокодек: FLAC (*.flac)
Тип рипа: image+.cue
Битрейт аудио: lossless
Продолжительность: 1:19:37
Источник (релизер): CD
Наличие сканов в содержимом раздачи: да
(600dpi)-Треклист:
01. Astral Projection - Nilaya (09:26)
02. Astral Projection - Another World (06:54)
03. Astral Projection - Visions Of Nasca (08:57)
04. Astral Projection - Searching For UFO's (10:25)
05. Astral Projection - Tryptomine Dream (09:51)
06. Trilithon - Trance Dance (Astral Projection Remix) (09:32)
07. Astral Projection - Mahadeva '99 (08:22)
08. Astral Projection - Aqua Line Spirit (08:34)
09. Astral Projection - Still On Mars (07:32)
- -

LOG

Exact Audio Copy V1.0 beta 3 from 29. August 2011
EAC extraction logfile from 15. December 2013, 20:23
Astral Projection / Another World
Used drive  : HL-DT-STDVDRAM GT30N   Adapter: 0  ID: 1
Read mode               : Secure
Utilize accurate stream : Yes
Defeat audio cache      : Yes
Make use of C2 pointers : No
Read offset correction                      : 103
Overread into Lead-In and Lead-Out          : No
Fill up missing offset samples with silence : Yes
Delete leading and trailing silent blocks   : No
Null samples used in CRC calculations       : Yes
Used interface                              : Native Win32 interface for Win NT & 2000
Used output format              : User Defined Encoder
Selected bitrate                : 1024 kBit/s
Quality                         : High
Add ID3 tag                     : No
Command line compressor         : C:\Program Files\Exact Audio Copy\Flac\flac.exe
Additional command line options : -V -8 -T "Date=%year%" -T "Genre=%genre%" -T "COMMENT=SpaceWalker" %source%
TOC of the extracted CD
     Track |   Start  |  Length  | Start sector | End sector
    ---------------------------------------------------------
        1  |  0:00.00 |  9:26.25 |         0    |    42474
        2  |  9:26.25 |  6:54.00 |     42475    |    73524
        3  | 16:20.25 |  8:57.17 |     73525    |   113816
        4  | 25:17.42 | 10:25.38 |    113817    |   160729
        5  | 35:43.05 |  9:51.20 |    160730    |   205074
        6  | 45:34.25 |  9:32.50 |    205075    |   248024
        7  | 55:07.00 |  8:22.47 |    248025    |   285721
        8  | 63:29.47 |  8:34.55 |    285722    |   324326
        9  | 72:04.27 |  7:32.55 |    324327    |   358281
Range status and errors
Selected range
     Filename D:\Laren\GoaTrance\Astral Projection - Another World.wav
     Peak level 100.0 %
     Extraction speed 2.3 X
     Range quality 100.0 %
     Test CRC C773BECC
     Copy CRC C773BECC
     Copy OK
No errors occurred
AccurateRip summary
Track  1  accurately ripped (confidence 14)  [328CB036]  (AR v2)
Track  2  accurately ripped (confidence 14)  [E5A38125]  (AR v2)
Track  3  accurately ripped (confidence 14)  [57E16A89]  (AR v2)
Track  4  accurately ripped (confidence 14)  [18458335]  (AR v2)
Track  5  accurately ripped (confidence 14)  [BB2AB1E6]  (AR v2)
Track  6  accurately ripped (confidence 14)  [15EFA331]  (AR v2)
Track  7  accurately ripped (confidence 14)  [8FD5E8AA]  (AR v2)
Track  8  accurately ripped (confidence 14)  [8F68F504]  (AR v2)
Track  9  accurately ripped (confidence 14)  [85FEE30A]  (AR v2)
All tracks accurately ripped
End of status report
==== Log checksum C32C8A14F80C46602BF3AA91F79DA23E5EEB077F3781F58B275F75B77AE21A4B ====

Astral Projection - Amen (Ganesha ‎- NT-30006) - 2002

Жанр: Goa Trance, Psytrance
Страна-производитель диска: Germany
Издатель (лейбл): Ganesha
Номер по каталогу: NT-30006
Аудиокодек: FLAC (*.flac)
Тип рипа: image+.cue
Битрейт аудио: lossless
Продолжительность: 1:19:19
Источник (релизер): CD
Наличие сканов в содержимом раздачи: да
(600dpi)-Треклист:
01. Amen (06:02)
02. Chaos (08:40)
03. Infinite Justice (07:02)
04. The Nexus (07:45)
05. Sticks & Stones (09:35)
06. Techno Drome (07:50)
07. 1,000,000 Years From Today... (08:21)
08. Anything Is Possible (08:27)
09. Heaven's Gate (07:38)
10. Electric Blue (07:54)
- -

LOG

Exact Audio Copy V1.0 beta 3 from 29. August 2011
EAC extraction logfile from 14. November 2013, 22:02
Astral Projection / Amen
Used drive  : HL-DT-STDVDRAM GT30N   Adapter: 0  ID: 1
Read mode               : Secure
Utilize accurate stream : Yes
Defeat audio cache      : Yes
Make use of C2 pointers : No
Read offset correction                      : 103
Overread into Lead-In and Lead-Out          : No
Fill up missing offset samples with silence : Yes
Delete leading and trailing silent blocks   : No
Null samples used in CRC calculations       : Yes
Used interface                              : Native Win32 interface for Win NT & 2000
Used output format              : User Defined Encoder
Selected bitrate                : 1024 kBit/s
Quality                         : High
Add ID3 tag                     : No
Command line compressor         : C:\Program Files\Exact Audio Copy\Flac\flac.exe
Additional command line options : -V -8 -T "Date=%year%" -T "Genre=%genre%" -T "COMMENT=SpaceWalker" %source%
TOC of the extracted CD
     Track |   Start  |  Length  | Start sector | End sector
    ---------------------------------------------------------
        1  |  0:00.00 |  6:02.28 |         0    |    27177
        2  |  6:02.28 |  8:40.69 |     27178    |    66246
        3  | 14:43.22 |  7:02.73 |     66247    |    97969
        4  | 21:46.20 |  7:45.36 |     97970    |   132880
        5  | 29:31.56 |  9:35.39 |    132881    |   176044
        6  | 39:07.20 |  7:50.22 |    176045    |   211316
        7  | 46:57.42 |  8:21.45 |    211317    |   248936
        8  | 55:19.12 |  8:27.36 |    248937    |   286997
        9  | 63:46.48 |  7:38.46 |    286998    |   321393
       10  | 71:25.19 |  7:54.10 |    321394    |   356953
Range status and errors
Selected range
     Filename D:\Laren\GoaTrance\Astral Projection - Amen.wav
     Peak level 100.0 %
     Extraction speed 2.3 X
     Range quality 100.0 %
     Test CRC D4AAD07E
     Copy CRC D4AAD07E
     Copy OK
No errors occurred
AccurateRip summary
Track  1  accurately ripped (confidence 2)  [88D362BD]  (AR v2)
Track  2  accurately ripped (confidence 2)  [07BC9A1A]  (AR v2)
Track  3  accurately ripped (confidence 2)  [F441919D]  (AR v2)
Track  4  accurately ripped (confidence 2)  [82D1FD37]  (AR v2)
Track  5  accurately ripped (confidence 2)  [E4B7CED5]  (AR v2)
Track  6  accurately ripped (confidence 2)  [58CC99D1]  (AR v2)
Track  7  accurately ripped (confidence 2)  [3BAA2876]  (AR v2)
Track  8  accurately ripped (confidence 2)  [D135EA81]  (AR v2)
Track  9  accurately ripped (confidence 2)  [AE8789E6]  (AR v2)
Track 10  accurately ripped (confidence 2)  [5831F262]  (AR v2)
All tracks accurately ripped
End of status report
==== Log checksum 750C615652252EFE86A85BBCFCA81FB997BF0B99F7FDB393A82940D4AB6DA2E4 ====
-
[Профиль] [ЛС]

Создавать темы 13-Авг-2015 11:02 (спустя 6 месяцев 20 дней)

Топик был перенесен из форума Электронная музыка в форум Electronic
sergej644
 
Показать сообщения:    

Текущее время: Сегодня 10:31

Часовой пояс: GMT



Вы не можете начинать темы
Вы не можете отвечать на сообщения
Вы не можете редактировать свои сообщения
Вы не можете удалять свои сообщения
Вы не можете голосовать в опросах
Вы не можете прикреплять файлы к сообщениям
Вы не можете скачивать файлы