(Power Metal) Astral Doors - Discography (10CD) 2003 - 2017 [FLAC, image +.cue, lossless]

 
Author Message

sergej644 ®

Gender:

Longevity: 8 years 5 months

Posts: 7321



: 10 ()

Mega Seeder 5 (1) Mega Seeder 4 (1) Top Seeder 2 (1)
Торрент-статистика

Post 26-Sep-2018 11:51

[Quote]

-Astral Doors - Discography (10CD)--
Год издания: 2003 - 2017
Страна: Sweden (Borlänge)
Жанр: Power Metal
Продолжительность: 09:05:57-Лейбл издания: указано к альбому
Страна-выпуска диска: Japan | Germany | Spain
Номер по каталогу: указано к альбому-Формат: FLAC
Битрейт аудио: Lossless
Тип рипа: image +.cue
Наличие сканов в содержимом раздачи: да
-

Трэклист

2003 - Cloudbreaker (Japanese Ed.) | 00:49:21


Лейбл издания: King Records Co.,Ltd.
Страна-выпуска диска: Japan
Номер по каталогу: KICP 974

01. Cloudbreaker (3:29)
02. Of The Son And The Father (4:52)
03. Hungry People (3:38)
04. Slay The Dragon (3:38)
05. Ocean Of Sand (3:51)
06. In Prison For Life (4:10)
07. The Trojan Horse (4:36)
08. Burn Down The Wheel (3:30)
09. Night Of The Witch (3:43)
10. Rainbow In Your Mind (3:48)
11. Man On The Rock (3:04)
12. Far Beyond The Astral Doors (Japan Bouns) (3:35)
13. Moonstruck Woman (Japan Bouns) (3:26)

2005 - Evil Is Forever (Japanese Ed.) | 00:53:16


Лейбл издания: King Records Co.,Ltd.
Страна-выпуска диска: Japan
Номер по каталогу: KICP 1051

01. Bride Of Christ (3:42)
02. Time To Rock (4:05)
03. Evil Is Forever (5:26)
04. Lionheart (5:09)
05. Praise The Bones (3:35)
06. Pull The Break (3:43)
07. Fear In Their Eyes (4:54)
08. Stalingrad (4:24)
09. From The Cradle To The Grave (3:56)
10. The Flame (3:39)
11. Path To Delirium (6:55)
12. Another Day In Hell (Bonus Track) (3:49)

2006 - Astralism | 00:54:59


Лейбл издания: Lokomotive Records
Страна-выпуска диска: Spain
Номер по каталогу: LM155

01. EVP (3:26)
02. Black Rain (4:28)
03. London Caves (3:31)
04. From Satan With Love (3:32)
05. Fire In Our House (3:30)
06. Israel (5:02)
07. Raiders Of The Ark (3:20)
08. Tears From A Titan (4:48)
09. Oliver Twist (3:49)
10. Vendetta (3:37)
11. The Green Mile (4:17)
12. In Rock We Trust (3:58)
13. Apocalypse Revealed (7:40)

2006 - Astralism (Japanese Ed.) | 01:02:56


Лейбл издания: King Records Co.,Ltd.
Страна-выпуска диска: Japan
Номер по каталогу: KICP 1128

01. EVP (3:25)
02. Black Rain (4:28)
03. London Caves (3:31)
04. From Satan with Love (3:32)
05. Fire In Our House (3:30)
06. Israel (5:02)
07. Raiders Of The Ark (3:20)
08. Tears From A Titan (4:48)
09. Oliver Twist (3:49)
10. Vendetta (3:37)
11. The Green Mile (4:17)
12. In Rock We Trust (3:58)
13. Apocalypse Revealed (7:42)
14. The Astral Friar (Bonus Track) (4:04)
15. Easy Rider (Bonus Track) (3:52)

2007 - New Revelation (Japanese Ed.) | 00:54:31


Лейбл издания: King Records Co.,Ltd.
Страна-выпуска диска: Japan
Номер по каталогу: KICP 1269

01. New Revelation (4:28)
02. Freedom War (4:17)
03. Pentecostal Bound (3:15)
04. Bastard Son (5:06)
05. Waiting For The Master (5:05)
06. Planet Earth (3:58)
07. Quisling (4:02)
08. Cold War Survivor (3:45)
09. The Gates Of Light (3:57)
10. Shores Of Solitude (3:30)
11. Mercenary Man (6:34)
12. Lament Of The East (Bonus Track) (1:51)
13. 21st Century Medieval (Bonus Track) (4:44)

2010 - Requiem Of Time | 01:03:06


Лейбл издания: Metalville
Страна-выпуска диска: Germany
Номер по каталогу: MV0003

01. Testament Of Rock (5:31)
02. Power And The Glory (4:10)
03. Rainbow Warrior (3:43)
04. Call Of The Wild (3:22)
05. St. Peter?s Cross (5:02)
06. So Many Days, So Many Nights (3:50)
07. Blood River (4:31)
08. Anthem Of The Dark (4:06)
09. Metal DJ (3:44)
10. Fire And Flame (4:21)
11. Greenfield Of Life (3:36)
12. The Healer (3:57)
13. Evil Spirits Fly (4:13)
14. When Darkness Comes (5:05)
15. Stockholm Bloodbath (Bonus Track) (3:55)

2011 - Jerusalem | 00:49:40


Лейбл издания: Metalville
Страна-выпуска диска: Germany
Номер по каталогу: MV0022

01. Seventh Crusade (3:42)
02. With A Stranger's Eye (3:56)
03. Child Of Rock'n'Roll (3:35)
04. Pearl Harbor (4:20)
05. Lost Crucifix (6:32)
06. Babylon Rise (3:50)
07. Suicide Rime (3:31)
08. The Battle Of Jacob's Ford (5:52)
09. Operation Freedom (3:50)
10. The Day After Yesterday (4:25)
11. Jerusalem (6:06)

2011 - Jerusalem (Japanese Ed.) | 00:57:56


Лейбл издания: King Record Co., Ltd.
Страна-выпуска диска: Japan
Номер по каталогу: KICP 1604

01. Seventh Crusade (3:40)
02. With A Stranger's Eye (3:56)
03. Child Of Rock 'N' Roll (3:35)
04. Pearl Harbor (4:20)
05. Lost Crucifix (6:32)
06. Babylon Rise (3:50)
07. Suicide Rime (3:31)
08. The Battle Of Jacob's Ford (5:52)
09. Operation Freedom (3:50)
10. The Day After Yesterday (4:25)
11. Jerusalem (6:08)
12. Pearl Harbor (Exclusive Acoustic Version) (Bonus Track) (3:56)
13. Angel Of Love (Re-mixed 2002 Demo Version) (Bonus Track) (4:20)

2014 - Notes From The Shadows | 00:49:11


Лейбл издания: Metalville
Страна-выпуска диска: Germany
Номер по каталогу: MV0047

01. The Last Temptation Of Christ (3:24)
02. Disciples Of The Dragon Lord (4:48)
03. Wailing Wall (5:27)
04. Shadowchaser (4:51)
05. Die Alone (9:13)
06. Hoodoo Ceremony (1:24)
07. Southern Conjuration (3:47)
08. Walker The Stalker (3:49)
09. Desert Nights (3:38)
10. In The Name Of Rock (4:06)
11. Confessions (4:45)

2017 - Black Eyed Children | 00:51:01


Лейбл издания: Metalville
Страна-выпуска диска: Germany
Номер по каталогу: MV0047

01. We Cry Out (4:34)
02. Walls (4:10)
03. God is the Devil (4:55)
04. Die on Stage (5:06)
05. Tomorrow's Dead (4:57)
06. Good vs. Bad (4:27)
07. Suburban Song (5:05)
08. Lost Boy (4:45)
09. Slaves to Ourselves (4:20)
10. Black Eyed Children (8:43)
-

Лог создания рипа

2003 - Cloudbreaker (Japanese Ed.)

Exact Audio Copy V1.0 beta 3 from 29. August 2011
EAC extraction logfile from 4. February 2015, 13:41
Astral Doors / Cloudbreaker
Used drive  : ATAPI   iHAS122   W   Adapter: 2  ID: 0
Read mode               : Secure
Utilize accurate stream : Yes
Defeat audio cache      : Yes
Make use of C2 pointers : No
Read offset correction                      : 48
Overread into Lead-In and Lead-Out          : No
Fill up missing offset samples with silence : Yes
Delete leading and trailing silent blocks   : No
Null samples used in CRC calculations       : Yes
Used interface                              : Installed external ASPI interface
Used output format              : User Defined Encoder
Selected bitrate                : 1024 kBit/s
Quality                         : High
Add ID3 tag                     : No
Command line compressor         : C:\Program Files\FLAC\flac.exe
Additional command line options : -V -8 -T "Date=%year%" -T "Genre=%genre%" -T"COMMENT=Ripped by  Ilijan" -8 -V %source%
TOC of the extracted CD
     Track |   Start  |  Length  | Start sector | End sector
    ---------------------------------------------------------
        1  |  0:00.00 |  3:29.37 |         0    |    15711
        2  |  3:29.37 |  4:52.28 |     15712    |    37639
        3  |  8:21.65 |  3:38.22 |     37640    |    54011
        4  | 12:00.12 |  3:37.68 |     54012    |    70354
        5  | 15:38.05 |  3:50.45 |     70355    |    87649
        6  | 19:28.50 |  4:10.25 |     87650    |   106424
        7  | 23:39.00 |  4:35.45 |    106425    |   127094
        8  | 28:14.45 |  3:30.30 |    127095    |   142874
        9  | 31:45.00 |  3:43.00 |    142875    |   159599
       10  | 35:28.00 |  3:48.12 |    159600    |   176711
       11  | 39:16.12 |  3:04.05 |    176712    |   190516
       12  | 42:20.17 |  3:34.60 |    190517    |   206626
       13  | 45:55.02 |  3:25.43 |    206627    |   222044
Range status and errors
Selected range
     Filename D:\ИЛИЯН\Astral Doors - Cloudbreaker.wav
     Peak level 98.7 %
     Extraction speed 3.8 X
     Range quality 100.0 %
     Test CRC C8161CC0
     Copy CRC C8161CC0
     Copy OK
No errors occurred
AccurateRip summary
Track  1  accurately ripped (confidence 3)  [92C00269]  (AR v2)
Track  2  accurately ripped (confidence 3)  [A16F84BC]  (AR v2)
Track  3  accurately ripped (confidence 3)  [C1AEE28C]  (AR v2)
Track  4  accurately ripped (confidence 3)  [B5B22503]  (AR v2)
Track  5  accurately ripped (confidence 3)  [53206AFA]  (AR v2)
Track  6  accurately ripped (confidence 3)  [91ECC363]  (AR v2)
Track  7  accurately ripped (confidence 3)  [2A1C0418]  (AR v2)
Track  8  accurately ripped (confidence 3)  [B562C9BC]  (AR v2)
Track  9  accurately ripped (confidence 3)  [198C8875]  (AR v2)
Track 10  accurately ripped (confidence 3)  [E56E9190]  (AR v2)
Track 11  accurately ripped (confidence 3)  [0D381BBF]  (AR v2)
Track 12  accurately ripped (confidence 3)  [43573844]  (AR v2)
Track 13  accurately ripped (confidence 3)  [8E0FE84A]  (AR v2)
All tracks accurately ripped
End of status report

2005 - Evil Is Forever (Japanese Ed.)

Exact Audio Copy V1.0 beta 3 from 29. August 2011
EAC extraction logfile from 4. February 2015, 16:21
Astral Doors / Evil Is Forever
Used drive  : ATAPI   iHAS122   W   Adapter: 2  ID: 0
Read mode               : Secure
Utilize accurate stream : Yes
Defeat audio cache      : Yes
Make use of C2 pointers : No
Read offset correction                      : 48
Overread into Lead-In and Lead-Out          : No
Fill up missing offset samples with silence : Yes
Delete leading and trailing silent blocks   : No
Null samples used in CRC calculations       : Yes
Used interface                              : Installed external ASPI interface
Used output format              : User Defined Encoder
Selected bitrate                : 1024 kBit/s
Quality                         : High
Add ID3 tag                     : No
Command line compressor         : C:\Program Files\FLAC\flac.exe
Additional command line options : -V -8 -T "Date=%year%" -T "Genre=%genre%" -T"COMMENT=Ripped by  Ilijan" -8 -V %source%
TOC of the extracted CD
     Track |   Start  |  Length  | Start sector | End sector
    ---------------------------------------------------------
        1  |  0:00.00 |  3:41.50 |         0    |    16624
        2  |  3:41.50 |  4:05.07 |     16625    |    35006
        3  |  7:46.57 |  5:25.38 |     35007    |    59419
        4  | 13:12.20 |  5:09.00 |     59420    |    82594
        5  | 18:21.20 |  3:34.42 |     82595    |    98686
        6  | 21:55.62 |  3:42.50 |     98687    |   115386
        7  | 25:38.37 |  4:54.33 |    115387    |   137469
        8  | 30:32.70 |  4:23.45 |    137470    |   157239
        9  | 34:56.40 |  3:56.30 |    157240    |   174969
       10  | 38:52.70 |  3:38.50 |    174970    |   191369
       11  | 42:31.45 |  6:55.35 |    191370    |   222529
       12  | 49:27.05 |  3:49.32 |    222530    |   239736
Range status and errors
Selected range
     Filename D:\ИЛИЯН\Astral Doors - Evil Is Forever.wav
     Peak level 98.7 %
     Extraction speed 3.7 X
     Range quality 99.9 %
     Test CRC 78B0827F
     Copy CRC 78B0827F
     Copy OK
No errors occurred
AccurateRip summary
Track  1  accurately ripped (confidence 2)  [474DAEA8]  (AR v2)
Track  2  accurately ripped (confidence 2)  [4A7E29CC]  (AR v2)
Track  3  accurately ripped (confidence 2)  [C3FCBB42]  (AR v2)
Track  4  accurately ripped (confidence 2)  [BC9B0E72]  (AR v2)
Track  5  accurately ripped (confidence 2)  [918E05BB]  (AR v2)
Track  6  accurately ripped (confidence 2)  [E6709E00]  (AR v2)
Track  7  accurately ripped (confidence 2)  [CF741095]  (AR v2)
Track  8  accurately ripped (confidence 2)  [43867475]  (AR v2)
Track  9  accurately ripped (confidence 2)  [519B0BB3]  (AR v2)
Track 10  accurately ripped (confidence 2)  [B8690697]  (AR v2)
Track 11  accurately ripped (confidence 2)  [FD45DE7C]  (AR v2)
Track 12  accurately ripped (confidence 2)  [C86E481F]  (AR v2)
All tracks accurately ripped
End of status report

2006 - Astralism

Exact Audio Copy V1.0 beta 3 from 29. August 2011
EAC extraction logfile from 4. February 2015, 15:12
Astral Doors / Astralism
Used drive  : ATAPI   iHAS122   W   Adapter: 2  ID: 0
Read mode               : Secure
Utilize accurate stream : Yes
Defeat audio cache      : Yes
Make use of C2 pointers : No
Read offset correction                      : 48
Overread into Lead-In and Lead-Out          : No
Fill up missing offset samples with silence : Yes
Delete leading and trailing silent blocks   : No
Null samples used in CRC calculations       : Yes
Used interface                              : Installed external ASPI interface
Used output format              : User Defined Encoder
Selected bitrate                : 1024 kBit/s
Quality                         : High
Add ID3 tag                     : No
Command line compressor         : C:\Program Files\FLAC\flac.exe
Additional command line options : -V -8 -T "Date=%year%" -T "Genre=%genre%" -T"COMMENT=Ripped by  Ilijan" -8 -V %source%
TOC of the extracted CD
     Track |   Start  |  Length  | Start sector | End sector
    ---------------------------------------------------------
        1  |  0:00.00 |  3:25.62 |         0    |    15436
        2  |  3:25.62 |  4:27.64 |     15437    |    35525
        3  |  7:53.51 |  3:31.21 |     35526    |    51371
        4  | 11:24.72 |  3:31.45 |     51372    |    67241
        5  | 14:56.42 |  3:30.20 |     67242    |    83011
        6  | 18:26.62 |  5:01.61 |     83012    |   105647
        7  | 23:28.48 |  3:20.04 |    105648    |   120651
        8  | 26:48.52 |  4:48.11 |    120652    |   142262
        9  | 31:36.63 |  3:48.71 |    142263    |   159433
       10  | 35:25.59 |  3:37.24 |    159434    |   175732
       11  | 39:03.08 |  4:16.68 |    175733    |   195000
       12  | 43:20.01 |  3:58.13 |    195001    |   212863
       13  | 47:18.14 |  7:40.37 |    212864    |   247400
Range status and errors
Selected range
     Filename D:\ИЛИЯН\Astral Doors - Astralism.wav
     Peak level 100.0 %
     Extraction speed 4.0 X
     Range quality 100.0 %
     Test CRC 658F909C
     Copy CRC 658F909C
     Copy OK
No errors occurred
AccurateRip summary
Track  1  accurately ripped (confidence 14)  [267B3C7E]  (AR v2)
Track  2  accurately ripped (confidence 14)  [1207D2C6]  (AR v2)
Track  3  accurately ripped (confidence 14)  [FBF4F1CD]  (AR v2)
Track  4  accurately ripped (confidence 14)  [610E7C2F]  (AR v2)
Track  5  accurately ripped (confidence 14)  [2E86BA49]  (AR v2)
Track  6  accurately ripped (confidence 14)  [25556D06]  (AR v2)
Track  7  accurately ripped (confidence 14)  [216CB7AC]  (AR v2)
Track  8  accurately ripped (confidence 14)  [22938977]  (AR v2)
Track  9  accurately ripped (confidence 14)  [1582E622]  (AR v2)
Track 10  accurately ripped (confidence 14)  [8C29EAB0]  (AR v2)
Track 11  accurately ripped (confidence 14)  [59528E81]  (AR v2)
Track 12  accurately ripped (confidence 14)  [891E7F32]  (AR v2)
Track 13  accurately ripped (confidence 14)  [48A227DB]  (AR v2)
All tracks accurately ripped
End of status report

2006 - Astralism (Japanese Ed.)

Exact Audio Copy V1.3 from 2. September 2016
EAC extraction logfile from 20. February 2017, 12:38
Astral Doors / Astralism (Japan)
Used drive  : ATAPI   iHAS122   W   Adapter: 2  ID: 0
Read mode               : Secure
Utilize accurate stream : Yes
Defeat audio cache      : Yes
Make use of C2 pointers : No
Read offset correction                      : 48
Overread into Lead-In and Lead-Out          : No
Fill up missing offset samples with silence : Yes
Delete leading and trailing silent blocks   : No
Null samples used in CRC calculations       : Yes
Used interface                              : Installed external ASPI interface
Used output format              : User Defined Encoder
Selected bitrate                : 1024 kBit/s
Quality                         : High
Add ID3 tag                     : No
Command line compressor         : C:\Program Files\FLAC\flac.exe
Additional command line options : -V -8 -T "Date=%year%" -T "Genre=%genre%" -T"COMMENT=Ripped by  Ilijan - ilko" -8 -V %source%
TOC of the extracted CD
     Track |   Start  |  Length  | Start sector | End sector
    ---------------------------------------------------------
        1  |  0:00.00 |  3:25.35 |         0    |    15409
        2  |  3:25.35 |  4:27.65 |     15410    |    35499
        3  |  7:53.25 |  3:31.25 |     35500    |    51349
        4  | 11:24.50 |  3:31.40 |     51350    |    67214
        5  | 14:56.15 |  3:30.25 |     67215    |    82989
        6  | 18:26.40 |  5:01.57 |     82990    |   105621
        7  | 23:28.22 |  3:20.05 |    105622    |   120626
        8  | 26:48.27 |  4:48.10 |    120627    |   142236
        9  | 31:36.37 |  3:48.73 |    142237    |   159409
       10  | 35:25.35 |  3:37.22 |    159410    |   175706
       11  | 39:02.57 |  4:16.70 |    175707    |   194976
       12  | 43:19.52 |  3:58.13 |    194977    |   212839
       13  | 47:17.65 |  7:42.37 |    212840    |   247526
       14  | 55:00.27 |  4:03.68 |    247527    |   265819
       15  | 59:04.20 |  3:52.12 |    265820    |   283231
Range status and errors
Selected range
     Filename D:\ilko\Astral Doors - Astralism (Japan).wav
     Peak level 98.7 %
     Extraction speed 4.0 X
     Range quality 100.0 %
     Test CRC A1C3D91C
     Copy CRC A1C3D91C
     Copy OK
No errors occurred
AccurateRip summary
Track  1  accurately ripped (confidence 3)  [E22E5095]  (AR v2)
Track  2  accurately ripped (confidence 3)  [FC3CF8AE]  (AR v2)
Track  3  accurately ripped (confidence 3)  [C5B6E183]  (AR v2)
Track  4  accurately ripped (confidence 3)  [AA65782A]  (AR v2)
Track  5  accurately ripped (confidence 3)  [14399E1F]  (AR v2)
Track  6  accurately ripped (confidence 3)  [52D720FF]  (AR v2)
Track  7  accurately ripped (confidence 3)  [641616BC]  (AR v2)
Track  8  accurately ripped (confidence 3)  [99E9807F]  (AR v2)
Track  9  accurately ripped (confidence 3)  [44E22280]  (AR v2)
Track 10  accurately ripped (confidence 3)  [B6C1E5A0]  (AR v2)
Track 11  accurately ripped (confidence 3)  [D8A2D8A9]  (AR v2)
Track 12  accurately ripped (confidence 3)  [D5E95179]  (AR v2)
Track 13  accurately ripped (confidence 2)  [C46DE857]  (AR v2)
Track 14  accurately ripped (confidence 3)  [733DC552]  (AR v2)
Track 15  accurately ripped (confidence 3)  [D87BEF1B]  (AR v2)
All tracks accurately ripped
End of status report

2007 - New Revelation (Japanese Ed.)

Exact Audio Copy V1.0 beta 3 from 29. August 2011
EAC extraction logfile from 4. February 2015, 16:56
Astral Doors / New Revelation (Japan)
Used drive  : ATAPI   iHAS122   W   Adapter: 2  ID: 0
Read mode               : Secure
Utilize accurate stream : Yes
Defeat audio cache      : Yes
Make use of C2 pointers : No
Read offset correction                      : 48
Overread into Lead-In and Lead-Out          : No
Fill up missing offset samples with silence : Yes
Delete leading and trailing silent blocks   : No
Null samples used in CRC calculations       : Yes
Used interface                              : Installed external ASPI interface
Used output format              : User Defined Encoder
Selected bitrate                : 1024 kBit/s
Quality                         : High
Add ID3 tag                     : No
Command line compressor         : C:\Program Files\FLAC\flac.exe
Additional command line options : -V -8 -T "Date=%year%" -T "Genre=%genre%" -T"COMMENT=Ripped by  Ilijan" -8 -V %source%
TOC of the extracted CD
     Track |   Start  |  Length  | Start sector | End sector
    ---------------------------------------------------------
        1  |  0:00.00 |  4:28.36 |         0    |    20135
        2  |  4:28.36 |  4:17.16 |     20136    |    39426
        3  |  8:45.52 |  3:14.74 |     39427    |    54050
        4  | 12:00.51 |  5:06.13 |     54051    |    77013
        5  | 17:06.64 |  5:04.42 |     77014    |    99855
        6  | 22:11.31 |  3:57.55 |     99856    |   117685
        7  | 26:09.11 |  4:02.16 |    117686    |   135851
        8  | 30:11.27 |  3:45.11 |    135852    |   152737
        9  | 33:56.38 |  3:56.56 |    152738    |   170493
       10  | 37:53.19 |  3:29.38 |    170494    |   186206
       11  | 41:22.57 |  6:33.65 |    186207    |   215746
       12  | 47:56.47 |  1:51.05 |    215747    |   224076
       13  | 49:47.52 |  4:43.46 |    224077    |   245347
Range status and errors
Selected range
     Filename D:\ИЛИЯН\Astral Doors - New Revelation (Japan).wav
     Peak level 100.0 %
     Extraction speed 3.9 X
     Range quality 100.0 %
     Test CRC 5DBAFC29
     Copy CRC 5DBAFC29
     Copy OK
No errors occurred
AccurateRip summary
Track  1  accurately ripped (confidence 1)  [7E19D585]  (AR v2)
Track  2  accurately ripped (confidence 1)  [EE615446]  (AR v2)
Track  3  accurately ripped (confidence 1)  [7793DEE9]  (AR v2)
Track  4  accurately ripped (confidence 1)  [1506916D]  (AR v2)
Track  5  accurately ripped (confidence 1)  [EAB4D8C2]  (AR v2)
Track  6  accurately ripped (confidence 1)  [2FAC0DC1]  (AR v2)
Track  7  accurately ripped (confidence 1)  [E06C1235]  (AR v2)
Track  8  accurately ripped (confidence 1)  [2073E378]  (AR v2)
Track  9  accurately ripped (confidence 1)  [A1F5CBD9]  (AR v2)
Track 10  accurately ripped (confidence 1)  [33149FDE]  (AR v2)
Track 11  accurately ripped (confidence 1)  [BE9DDBC2]  (AR v2)
Track 12  accurately ripped (confidence 1)  [E71FCF29]  (AR v2)
Track 13  accurately ripped (confidence 1)  [5F4550DD]  (AR v2)
All tracks accurately ripped
End of status report

2010 - Requiem Of Time

Exact Audio Copy V1.0 beta 3 from 29. August 2011
EAC extraction logfile from 4. February 2015, 15:46
Astral Doors / Requiem Of Time
Used drive  : ATAPI   iHAS122   W   Adapter: 2  ID: 0
Read mode               : Secure
Utilize accurate stream : Yes
Defeat audio cache      : Yes
Make use of C2 pointers : No
Read offset correction                      : 48
Overread into Lead-In and Lead-Out          : No
Fill up missing offset samples with silence : Yes
Delete leading and trailing silent blocks   : No
Null samples used in CRC calculations       : Yes
Used interface                              : Installed external ASPI interface
Used output format              : User Defined Encoder
Selected bitrate                : 1024 kBit/s
Quality                         : High
Add ID3 tag                     : No
Command line compressor         : C:\Program Files\FLAC\flac.exe
Additional command line options : -V -8 -T "Date=%year%" -T "Genre=%genre%" -T"COMMENT=Ripped by  Ilijan" -8 -V %source%
TOC of the extracted CD
     Track |   Start  |  Length  | Start sector | End sector
    ---------------------------------------------------------
        1  |  0:00.00 |  5:31.03 |         0    |    24827
        2  |  5:31.03 |  4:10.25 |     24828    |    43602
        3  |  9:41.28 |  3:43.34 |     43603    |    60361
        4  | 13:24.62 |  3:22.26 |     60362    |    75537
        5  | 16:47.13 |  5:02.02 |     75538    |    98189
        6  | 21:49.15 |  3:49.55 |     98190    |   115419
        7  | 25:38.70 |  4:30.63 |    115420    |   135732
        8  | 30:09.58 |  4:05.72 |    135733    |   154179
        9  | 34:15.55 |  3:43.49 |    154180    |   170953
       10  | 37:59.29 |  4:21.25 |    170954    |   190553
       11  | 42:20.54 |  3:35.65 |    190554    |   206743
       12  | 45:56.44 |  3:57.11 |    206744    |   224529
       13  | 49:53.55 |  4:12.58 |    224530    |   243487
       14  | 54:06.38 |  5:04.40 |    243488    |   266327
       15  | 59:11.03 |  3:54.74 |    266328    |   283951
Range status and errors
Selected range
     Filename D:\ИЛИЯН\Astral Doors - Requiem Of Time.wav
     Peak level 99.1 %
     Extraction speed 4.2 X
     Range quality 100.0 %
     Test CRC 07483F07
     Copy CRC 07483F07
     Copy OK
No errors occurred
AccurateRip summary
Track  1  accurately ripped (confidence 11)  [B2534366]  (AR v2)
Track  2  accurately ripped (confidence 11)  [07EEAE3A]  (AR v2)
Track  3  accurately ripped (confidence 11)  [B8CCAA5B]  (AR v2)
Track  4  accurately ripped (confidence 11)  [57C06393]  (AR v2)
Track  5  accurately ripped (confidence 11)  [C0A7380F]  (AR v2)
Track  6  accurately ripped (confidence 11)  [CEE1C89C]  (AR v2)
Track  7  accurately ripped (confidence 11)  [8BE6B5F3]  (AR v2)
Track  8  accurately ripped (confidence 11)  [77C15F57]  (AR v2)
Track  9  accurately ripped (confidence 11)  [58136DB8]  (AR v2)
Track 10  accurately ripped (confidence 11)  [2DFC5ECF]  (AR v2)
Track 11  accurately ripped (confidence 11)  [E47C28D9]  (AR v2)
Track 12  accurately ripped (confidence 11)  [BCC930AD]  (AR v2)
Track 13  accurately ripped (confidence 11)  [8A540A8E]  (AR v2)
Track 14  accurately ripped (confidence 11)  [4E6F0A2C]  (AR v2)
Track 15  accurately ripped (confidence 11)  [A72540A5]  (AR v2)
All tracks accurately ripped
End of status report

2011 - Jerusalem

Exact Audio Copy V1.0 beta 3 from 29. August 2011
EAC extraction logfile from 4. February 2015, 14:12
Astral Doors / Jerusalem
Used drive  : ATAPI   iHAS122   W   Adapter: 2  ID: 0
Read mode               : Secure
Utilize accurate stream : Yes
Defeat audio cache      : Yes
Make use of C2 pointers : No
Read offset correction                      : 48
Overread into Lead-In and Lead-Out          : No
Fill up missing offset samples with silence : Yes
Delete leading and trailing silent blocks   : No
Null samples used in CRC calculations       : Yes
Used interface                              : Installed external ASPI interface
Used output format              : User Defined Encoder
Selected bitrate                : 1024 kBit/s
Quality                         : High
Add ID3 tag                     : No
Command line compressor         : C:\Program Files\FLAC\flac.exe
Additional command line options : -V -8 -T "Date=%year%" -T "Genre=%genre%" -T"COMMENT=Ripped by  Ilijan" -8 -V %source%
TOC of the extracted CD
     Track |   Start  |  Length  | Start sector | End sector
    ---------------------------------------------------------
        1  |  0:00.00 |  3:41.56 |         0    |    16630
        2  |  3:41.56 |  3:55.39 |     16631    |    34294
        3  |  7:37.20 |  3:35.11 |     34295    |    50430
        4  | 11:12.31 |  4:20.33 |     50431    |    69963
        5  | 15:32.64 |  6:31.70 |     69964    |    99358
        6  | 22:04.59 |  3:50.20 |     99359    |   116628
        7  | 25:55.04 |  3:30.74 |    116629    |   132452
        8  | 29:26.03 |  5:52.06 |    132453    |   158858
        9  | 35:18.09 |  3:50.31 |    158859    |   176139
       10  | 39:08.40 |  4:24.60 |    176140    |   195999
       11  | 43:33.25 |  6:06.33 |    196000    |   223482
Range status and errors
Selected range
     Filename D:\ИЛИЯН\Astral Doors - Jerusalem.wav
     Peak level 97.1 %
     Extraction speed 3.9 X
     Range quality 100.0 %
     Test CRC F9C057EB
     Copy CRC F9C057EB
     Copy OK
No errors occurred
AccurateRip summary
Track  1  accurately ripped (confidence 20)  [5A05B52B]  (AR v2)
Track  2  accurately ripped (confidence 20)  [832F40A7]  (AR v2)
Track  3  accurately ripped (confidence 20)  [87F882A5]  (AR v2)
Track  4  accurately ripped (confidence 20)  [ECF2331D]  (AR v2)
Track  5  accurately ripped (confidence 20)  [2184ACAD]  (AR v2)
Track  6  accurately ripped (confidence 20)  [46F5F3C6]  (AR v2)
Track  7  accurately ripped (confidence 20)  [7CB5E457]  (AR v2)
Track  8  accurately ripped (confidence 20)  [63ED6B51]  (AR v2)
Track  9  accurately ripped (confidence 21)  [9CD3FF1B]  (AR v2)
Track 10  accurately ripped (confidence 21)  [21F62C2E]  (AR v2)
Track 11  accurately ripped (confidence 21)  [1490B246]  (AR v2)
All tracks accurately ripped
End of status report

2011 - Jerusalem (Japanese Ed.)

Exact Audio Copy V1.3 from 2. September 2016
EAC extraction logfile from 20. February 2017, 13:37
Astral Doors / Jerusalem (Japan)
Used drive  : ATAPI   iHAS122   W   Adapter: 2  ID: 0
Read mode               : Secure
Utilize accurate stream : Yes
Defeat audio cache      : Yes
Make use of C2 pointers : No
Read offset correction                      : 48
Overread into Lead-In and Lead-Out          : No
Fill up missing offset samples with silence : Yes
Delete leading and trailing silent blocks   : No
Null samples used in CRC calculations       : Yes
Used interface                              : Installed external ASPI interface
Used output format              : User Defined Encoder
Selected bitrate                : 1024 kBit/s
Quality                         : High
Add ID3 tag                     : No
Command line compressor         : C:\Program Files\FLAC\flac.exe
Additional command line options : -V -8 -T "Date=%year%" -T "Genre=%genre%" -T"COMMENT=Ripped by  Ilijan - ilko" -8 -V %source%
TOC of the extracted CD
     Track |   Start  |  Length  | Start sector | End sector
    ---------------------------------------------------------
        1  |  0:00.00 |  3:39.57 |         0    |    16481
        2  |  3:39.57 |  3:55.39 |     16482    |    34145
        3  |  7:35.21 |  3:35.12 |     34146    |    50282
        4  | 11:10.33 |  4:20.34 |     50283    |    69816
        5  | 15:30.67 |  6:31.71 |     69817    |    99212
        6  | 22:02.63 |  3:50.21 |     99213    |   116483
        7  | 25:53.09 |  3:31.00 |    116484    |   132308
        8  | 29:24.09 |  5:52.07 |    132309    |   158715
        9  | 35:16.16 |  3:50.32 |    158716    |   175997
       10  | 39:06.48 |  4:24.61 |    175998    |   195858
       11  | 43:31.34 |  6:08.34 |    195859    |   223492
       12  | 49:39.68 |  3:55.60 |    223493    |   241177
       13  | 53:35.53 |  4:20.30 |    241178    |   260707
Range status and errors
Selected range
     Filename D:\ilko\Astral Doors - Jerusalem (Japan).wav
     Peak level 99.2 %
     Extraction speed 3.9 X
     Range quality 100.0 %
     Test CRC F1C8E0FC
     Copy CRC F1C8E0FC
     Copy OK
No errors occurred
AccurateRip summary
Track  1  accurately ripped (confidence 1)  [E0EC3857]  (AR v2)
Track  2  accurately ripped (confidence 1)  [56070E55]  (AR v2)
Track  3  accurately ripped (confidence 1)  [31ADE752]  (AR v2)
Track  4  accurately ripped (confidence 1)  [DD24C443]  (AR v2)
Track  5  accurately ripped (confidence 1)  [B50AFC34]  (AR v2)
Track  6  accurately ripped (confidence 1)  [59DC5DC0]  (AR v2)
Track  7  accurately ripped (confidence 1)  [F8ADA8D5]  (AR v2)
Track  8  accurately ripped (confidence 1)  [34C357A4]  (AR v2)
Track  9  accurately ripped (confidence 1)  [24987D3B]  (AR v2)
Track 10  accurately ripped (confidence 1)  [BFFEC03A]  (AR v2)
Track 11  accurately ripped (confidence 1)  [18B0549E]  (AR v2)
Track 12  accurately ripped (confidence 1)  [788A819A]  (AR v2)
Track 13  accurately ripped (confidence 1)  [8B3E616A]  (AR v2)
All tracks accurately ripped
End of status report

2014 - Notes From The Shadows

Exact Audio Copy V1.0 beta 3 from 29. August 2011
EAC extraction logfile from 4. February 2015, 14:40
Astral Doors / Notes From The Shadows
Used drive  : ATAPI   iHAS122   W   Adapter: 2  ID: 0
Read mode               : Secure
Utilize accurate stream : Yes
Defeat audio cache      : Yes
Make use of C2 pointers : No
Read offset correction                      : 48
Overread into Lead-In and Lead-Out          : No
Fill up missing offset samples with silence : Yes
Delete leading and trailing silent blocks   : No
Null samples used in CRC calculations       : Yes
Used interface                              : Installed external ASPI interface
Used output format              : User Defined Encoder
Selected bitrate                : 1024 kBit/s
Quality                         : High
Add ID3 tag                     : No
Command line compressor         : C:\Program Files\FLAC\flac.exe
Additional command line options : -V -8 -T "Date=%year%" -T "Genre=%genre%" -T"COMMENT=Ripped by  Ilijan" -8 -V %source%
TOC of the extracted CD
     Track |   Start  |  Length  | Start sector | End sector
    ---------------------------------------------------------
        1  |  0:00.00 |  3:23.52 |         0    |    15276
        2  |  3:23.52 |  4:48.14 |     15277    |    36890
        3  |  8:11.66 |  5:26.47 |     36891    |    61387
        4  | 13:38.38 |  4:50.68 |     61388    |    83205
        5  | 18:29.31 |  9:13.29 |     83206    |   124709
        6  | 27:42.60 |  1:24.21 |    124710    |   131030
        7  | 29:07.06 |  3:46.68 |    131031    |   148048
        8  | 32:53.74 |  3:48.67 |    148049    |   165215
        9  | 36:42.66 |  3:37.41 |    165216    |   181531
       10  | 40:20.32 |  4:05.55 |    181532    |   199961
       11  | 44:26.12 |  4:44.55 |    199962    |   221316
Range status and errors
Selected range
     Filename D:\ИЛИЯН\Astral Doors - Notes From The Shadows.wav
     Peak level 100.0 %
     Extraction speed 3.9 X
     Range quality 100.0 %
     Test CRC 89B45CA3
     Copy CRC 89B45CA3
     Copy OK
No errors occurred
AccurateRip summary
Track  1  accurately ripped (confidence 13)  [A47DAAF7]  (AR v2)
Track  2  accurately ripped (confidence 13)  [54518715]  (AR v2)
Track  3  accurately ripped (confidence 12)  [2B1475F3]  (AR v2)
Track  4  accurately ripped (confidence 12)  [0E0B2EAC]  (AR v2)
Track  5  accurately ripped (confidence 13)  [7C769CA3]  (AR v2)
Track  6  accurately ripped (confidence 13)  [2EF5869C]  (AR v2)
Track  7  accurately ripped (confidence 12)  [5EABD619]  (AR v2)
Track  8  accurately ripped (confidence 13)  [5AB04E90]  (AR v2)
Track  9  accurately ripped (confidence 12)  [FD81F924]  (AR v2)
Track 10  accurately ripped (confidence 13)  [C46A7A65]  (AR v2)
Track 11  accurately ripped (confidence 13)  [202B474A]  (AR v2)
All tracks accurately ripped
End of status report

2017 - Black Eyed Children

Exact Audio Copy V1.3 from 2. September 2016
EAC extraction logfile from 28. June 2017, 17:03
Astral Doors / Black Eyed Children
Used drive  : ATAPI   iHAS122   W   Adapter: 2  ID: 0
Read mode               : Secure
Utilize accurate stream : Yes
Defeat audio cache      : Yes
Make use of C2 pointers : No
Read offset correction                      : 48
Overread into Lead-In and Lead-Out          : No
Fill up missing offset samples with silence : Yes
Delete leading and trailing silent blocks   : No
Null samples used in CRC calculations       : Yes
Used interface                              : Installed external ASPI interface
Used output format              : User Defined Encoder
Selected bitrate                : 1024 kBit/s
Quality                         : High
Add ID3 tag                     : No
Command line compressor         : C:\Program Files\FLAC\flac.exe
Additional command line options : -V -8 -T "Date=%year%" -T "Genre=%genre%" -T"COMMENT=Ripped by  Ilijan - ilko" -8 -V %source%
TOC of the extracted CD
     Track |   Start  |  Length  | Start sector | End sector
    ---------------------------------------------------------
        1  |  0:00.00 |  4:34.04 |         0    |    20553
        2  |  4:34.04 |  4:10.35 |     20554    |    39338
        3  |  8:44.39 |  4:54.62 |     39339    |    61450
        4  | 13:39.26 |  5:05.51 |     61451    |    84376
        5  | 18:45.02 |  4:56.41 |     84377    |   106617
        6  | 23:41.43 |  4:27.28 |    106618    |   126670
        7  | 28:08.71 |  5:04.72 |    126671    |   149542
        8  | 33:13.68 |  4:44.51 |    149543    |   170893
        9  | 37:58.44 |  4:19.55 |    170894    |   190373
       10  | 42:18.24 |  8:42.40 |    190374    |   229563
Range status and errors
Selected range
     Filename D:\ilko\Astral Doors - Black Eyed Children.wav
     Peak level 94.4 %
     Extraction speed 3.9 X
     Range quality 100.0 %
     Test CRC E4EBF199
     Copy CRC E4EBF199
     Copy OK
No errors occurred
AccurateRip summary
Track  1  not present in database
Track  2  not present in database
Track  3  not present in database
Track  4  not present in database
Track  5  not present in database
Track  6  not present in database
Track  7  not present in database
Track  8  not present in database
Track  9  not present in database
Track 10  not present in database
None of the tracks are present in the AccurateRip database
End of status report

Индексная карта (non-compilant .cue)

2003 - Cloudbreaker (Japanese Ed.)

REM GENRE "Heavy Metal"
REM DATE 2003
REM DISCID 980B900D
REM COMMENT "ExactAudioCopy v1.0b3"
PERFORMER "Astral Doors"
TITLE "Cloudbreaker"
FILE "Astral Doors - Cloudbreaker.flac" WAVE
  TRACK 01 AUDIO
    TITLE "Cloudbreaker"
    PERFORMER "Astral Doors"
    INDEX 01 00:00:00
  TRACK 02 AUDIO
    TITLE "Of The Son And The Father"
    PERFORMER "Astral Doors"
    INDEX 01 03:29:37
  TRACK 03 AUDIO
    TITLE "Hungry People"
    PERFORMER "Astral Doors"
    INDEX 01 08:21:65
  TRACK 04 AUDIO
    TITLE "Slay The Dragon"
    PERFORMER "Astral Doors"
    INDEX 01 12:00:12
  TRACK 05 AUDIO
    TITLE "Ocean Of Sand"
    PERFORMER "Astral Doors"
    INDEX 01 15:38:05
  TRACK 06 AUDIO
    TITLE "In Prison For Life"
    PERFORMER "Astral Doors"
    INDEX 01 19:28:50
  TRACK 07 AUDIO
    TITLE "The Trojan Horse"
    PERFORMER "Astral Doors"
    INDEX 01 23:39:00
  TRACK 08 AUDIO
    TITLE "Burn Down The Wheel"
    PERFORMER "Astral Doors"
    INDEX 01 28:14:45
  TRACK 09 AUDIO
    TITLE "Night Of The Witch"
    PERFORMER "Astral Doors"
    INDEX 01 31:45:00
  TRACK 10 AUDIO
    TITLE "Rainbow In Your Mind"
    PERFORMER "Astral Doors"
    INDEX 01 35:28:00
  TRACK 11 AUDIO
    TITLE "Man On The Rock"
    PERFORMER "Astral Doors"
    INDEX 01 39:16:12
  TRACK 12 AUDIO
    TITLE "Far Beyond The Astral Doors (Japan Bouns)"
    PERFORMER "Astral Doors"
    INDEX 00 42:19:15
    INDEX 01 42:20:17
  TRACK 13 AUDIO
    TITLE "Moonstruck Woman (Japan Bouns)"
    PERFORMER "Astral Doors"
    INDEX 01 45:55:02

2005 - Evil Is Forever (Japanese Ed.)

REM GENRE "Heavy Metal"
REM DATE 2005
REM DISCID A20C7C0C
REM COMMENT "ExactAudioCopy v1.0b3"
PERFORMER "Astral Doors"
TITLE "Evil Is Forever"
FILE "Astral Doors - Evil Is Forever.flac" WAVE
  TRACK 01 AUDIO
    TITLE "Bride Of Christ"
    PERFORMER "Astral Doors"
    INDEX 01 00:00:00
  TRACK 02 AUDIO
    TITLE "Time To Rock"
    PERFORMER "Astral Doors"
    INDEX 00 03:40:22
    INDEX 01 03:41:50
  TRACK 03 AUDIO
    TITLE "Evil Is Forever"
    PERFORMER "Astral Doors"
    INDEX 00 07:45:37
    INDEX 01 07:46:57
  TRACK 04 AUDIO
    TITLE "Lionheart"
    PERFORMER "Astral Doors"
    INDEX 00 13:11:20
    INDEX 01 13:12:20
  TRACK 05 AUDIO
    TITLE "Praise The Bones"
    PERFORMER "Astral Doors"
    INDEX 00 18:19:40
    INDEX 01 18:21:20
  TRACK 06 AUDIO
    TITLE "Pull The Break"
    PERFORMER "Astral Doors"
    INDEX 00 21:54:55
    INDEX 01 21:55:62
  TRACK 07 AUDIO
    TITLE "Fear In Their Eyes"
    PERFORMER "Astral Doors"
    INDEX 00 25:37:12
    INDEX 01 25:38:37
  TRACK 08 AUDIO
    TITLE "Stalingrad"
    PERFORMER "Astral Doors"
    INDEX 00 30:31:07
    INDEX 01 30:32:70
  TRACK 09 AUDIO
    TITLE "From The Cradle To The Grave"
    PERFORMER "Astral Doors"
    INDEX 00 34:54:55
    INDEX 01 34:56:40
  TRACK 10 AUDIO
    TITLE "The Flame"
    PERFORMER "Astral Doors"
    INDEX 00 38:51:60
    INDEX 01 38:52:70
  TRACK 11 AUDIO
    TITLE "Path To Delirium"
    PERFORMER "Astral Doors"
    INDEX 00 42:30:20
    INDEX 01 42:31:45
  TRACK 12 AUDIO
    TITLE "Another Day In Hell (Bonus Track)"
    PERFORMER "Astral Doors"
    INDEX 00 49:25:62
    INDEX 01 49:27:05

2006 - Astralism

REM GENRE "Heavy Metal"
REM DATE 2006
REM DISCID AC0CE20D
REM COMMENT "ExactAudioCopy v1.0b3"
PERFORMER "Astral Doors"
TITLE "Astralism"
FILE "Astral Doors - Astralism.flac" WAVE
  TRACK 01 AUDIO
    TITLE "EVP"
    PERFORMER "Astral Doors"
    INDEX 01 00:00:00
  TRACK 02 AUDIO
    TITLE "Black Rain"
    PERFORMER "Astral Doors"
    INDEX 00 03:23:62
    INDEX 01 03:25:62
  TRACK 03 AUDIO
    TITLE "London Caves"
    PERFORMER "Astral Doors"
    INDEX 00 07:51:51
    INDEX 01 07:53:51
  TRACK 04 AUDIO
    TITLE "From Satan With Love"
    PERFORMER "Astral Doors"
    INDEX 00 11:22:72
    INDEX 01 11:24:72
  TRACK 05 AUDIO
    TITLE "Fire In Our House"
    PERFORMER "Astral Doors"
    INDEX 00 14:54:42
    INDEX 01 14:56:42
  TRACK 06 AUDIO
    TITLE "Israel"
    PERFORMER "Astral Doors"
    INDEX 00 18:24:62
    INDEX 01 18:26:62
  TRACK 07 AUDIO
    TITLE "Raiders Of The Ark"
    PERFORMER "Astral Doors"
    INDEX 00 23:26:48
    INDEX 01 23:28:48
  TRACK 08 AUDIO
    TITLE "Tears From A Titan"
    PERFORMER "Astral Doors"
    INDEX 00 26:46:52
    INDEX 01 26:48:52
  TRACK 09 AUDIO
    TITLE "Oliver Twist"
    PERFORMER "Astral Doors"
    INDEX 00 31:34:63
    INDEX 01 31:36:63
  TRACK 10 AUDIO
    TITLE "Vendetta"
    PERFORMER "Astral Doors"
    INDEX 00 35:23:59
    INDEX 01 35:25:59
  TRACK 11 AUDIO
    TITLE "The Green Mile"
    PERFORMER "Astral Doors"
    INDEX 00 39:01:08
    INDEX 01 39:03:08
  TRACK 12 AUDIO
    TITLE "In Rock We Trust"
    PERFORMER "Astral Doors"
    INDEX 00 43:18:01
    INDEX 01 43:20:01
  TRACK 13 AUDIO
    TITLE "Apocalypse Revealed"
    PERFORMER "Astral Doors"
    INDEX 00 47:16:14
    INDEX 01 47:18:14

2006 - Astralism (Japanese Ed.)

REM GENRE "Heavy Metal"
REM DATE 2006
REM DISCID CC0EC00F
REM COMMENT "ExactAudioCopy v1.3"
PERFORMER "Astral Doors"
TITLE "Astralism (Japan)"
FILE "Astral Doors - Astralism (Japan).flac" WAVE
  TRACK 01 AUDIO
    TITLE "EVP"
    PERFORMER "Astral Doors"
    INDEX 01 00:00:00
  TRACK 02 AUDIO
    TITLE "Black Rain"
    PERFORMER "Astral Doors"
    INDEX 00 03:24:35
    INDEX 01 03:25:35
  TRACK 03 AUDIO
    TITLE "London Caves"
    PERFORMER "Astral Doors"
    INDEX 00 07:52:25
    INDEX 01 07:53:25
  TRACK 04 AUDIO
    TITLE "From Satan with Love"
    PERFORMER "Astral Doors"
    INDEX 00 11:23:50
    INDEX 01 11:24:50
  TRACK 05 AUDIO
    TITLE "Fire In Our House"
    PERFORMER "Astral Doors"
    INDEX 00 14:55:15
    INDEX 01 14:56:15
  TRACK 06 AUDIO
    TITLE "Israel"
    PERFORMER "Astral Doors"
    INDEX 00 18:25:40
    INDEX 01 18:26:40
  TRACK 07 AUDIO
    TITLE "Raiders Of The Ark"
    PERFORMER "Astral Doors"
    INDEX 00 23:27:22
    INDEX 01 23:28:22
  TRACK 08 AUDIO
    TITLE "Tears From A Titan"
    PERFORMER "Astral Doors"
    INDEX 00 26:47:27
    INDEX 01 26:48:27
  TRACK 09 AUDIO
    TITLE "Oliver Twist"
    PERFORMER "Astral Doors"
    INDEX 00 31:35:37
    INDEX 01 31:36:37
  TRACK 10 AUDIO
    TITLE "Vendetta"
    PERFORMER "Astral Doors"
    INDEX 00 35:24:35
    INDEX 01 35:25:35
  TRACK 11 AUDIO
    TITLE "The Green Mile"
    PERFORMER "Astral Doors"
    INDEX 00 39:01:57
    INDEX 01 39:02:57
  TRACK 12 AUDIO
    TITLE "In Rock We Trust"
    PERFORMER "Astral Doors"
    INDEX 00 43:18:52
    INDEX 01 43:19:52
  TRACK 13 AUDIO
    TITLE "Apocalypse Revealed"
    PERFORMER "Astral Doors"
    INDEX 00 47:16:65
    INDEX 01 47:17:65
  TRACK 14 AUDIO
    TITLE "The Astral Friar (Bonus Track)"
    PERFORMER "Astral Doors"
    INDEX 00 54:59:27
    INDEX 01 55:00:27
  TRACK 15 AUDIO
    TITLE "Easy Rider (Bonus Track)"
    PERFORMER "Astral Doors"
    INDEX 00 59:03:20
    INDEX 01 59:04:20

2007 - New Revelation (Japanese Ed.)

REM GENRE "Heavy Metal"
REM DATE 2007
REM DISCID B80CC70D
REM COMMENT "ExactAudioCopy v1.0b3"
PERFORMER "Astral Doors"
TITLE "New Revelation (Japan)"
FILE "Astral Doors - New Revelation (Japan).flac" WAVE
  TRACK 01 AUDIO
    TITLE "New Revelation"
    PERFORMER "Astral Doors"
    INDEX 01 00:00:00
  TRACK 02 AUDIO
    TITLE "Freedom War"
    PERFORMER "Astral Doors"
    INDEX 00 04:26:36
    INDEX 01 04:28:36
  TRACK 03 AUDIO
    TITLE "Pentecostal Bound"
    PERFORMER "Astral Doors"
    INDEX 00 08:43:52
    INDEX 01 08:45:52
  TRACK 04 AUDIO
    TITLE "Bastard Son"
    PERFORMER "Astral Doors"
    INDEX 00 11:58:51
    INDEX 01 12:00:51
  TRACK 05 AUDIO
    TITLE "Waiting For The Master"
    PERFORMER "Astral Doors"
    INDEX 00 17:04:64
    INDEX 01 17:06:64
  TRACK 06 AUDIO
    TITLE "Planet Earth"
    PERFORMER "Astral Doors"
    INDEX 00 22:09:31
    INDEX 01 22:11:31
  TRACK 07 AUDIO
    TITLE "Quisling"
    PERFORMER "Astral Doors"
    INDEX 00 26:07:11
    INDEX 01 26:09:11
  TRACK 08 AUDIO
    TITLE "Cold War Survivor"
    PERFORMER "Astral Doors"
    INDEX 00 30:09:27
    INDEX 01 30:11:27
  TRACK 09 AUDIO
    TITLE "The Gates Of Light"
    PERFORMER "Astral Doors"
    INDEX 00 33:54:38
    INDEX 01 33:56:38
  TRACK 10 AUDIO
    TITLE "Shores Of Solitude"
    PERFORMER "Astral Doors"
    INDEX 00 37:51:19
    INDEX 01 37:53:19
  TRACK 11 AUDIO
    TITLE "Mercenary Man"
    PERFORMER "Astral Doors"
    INDEX 00 41:20:57
    INDEX 01 41:22:57
  TRACK 12 AUDIO
    TITLE "Lament Of The East (Bonus Track)"
    PERFORMER "Astral Doors"
    INDEX 00 47:54:48
    INDEX 01 47:56:47
  TRACK 13 AUDIO
    TITLE "21st Century Medieval (Bonus Track)"
    PERFORMER "Astral Doors"
    INDEX 00 49:45:52
    INDEX 01 49:47:52

2010 - Requiem Of Time

REM GENRE "Heavy/Power Metal"
REM DATE 2010
REM DISCID C60ECA0F
REM COMMENT "ExactAudioCopy v1.0b3"
PERFORMER "Astral Doors"
TITLE "Requiem Of Time"
FILE "Astral Doors - Requiem Of Time.flac" WAVE
  TRACK 01 AUDIO
    TITLE "Testament Of Rock"
    PERFORMER "Astral Doors"
    INDEX 01 00:00:00
  TRACK 02 AUDIO
    TITLE "Power And The Glory"
    PERFORMER "Astral Doors"
    INDEX 01 05:31:03
  TRACK 03 AUDIO
    TITLE "Rainbow Warrior"
    PERFORMER "Astral Doors"
    INDEX 01 09:41:28
  TRACK 04 AUDIO
    TITLE "Call Of The Wild"
    PERFORMER "Astral Doors"
    INDEX 01 13:24:62
  TRACK 05 AUDIO
    TITLE "St. Peter?s Cross"
    PERFORMER "Astral Doors"
    INDEX 01 16:47:13
  TRACK 06 AUDIO
    TITLE "So Many Days, So Many Nights"
    PERFORMER "Astral Doors"
    INDEX 01 21:49:15
  TRACK 07 AUDIO
    TITLE "Blood River"
    PERFORMER "Astral Doors"
    INDEX 01 25:38:70
  TRACK 08 AUDIO
    TITLE "Anthem Of The Dark"
    PERFORMER "Astral Doors"
    INDEX 01 30:09:58
  TRACK 09 AUDIO
    TITLE "Metal DJ"
    PERFORMER "Astral Doors"
    INDEX 01 34:15:55
  TRACK 10 AUDIO
    TITLE "Fire And Flame"
    PERFORMER "Astral Doors"
    INDEX 01 37:59:29
  TRACK 11 AUDIO
    TITLE "Greenfield Of Life"
    PERFORMER "Astral Doors"
    INDEX 01 42:20:54
  TRACK 12 AUDIO
    TITLE "The Healer"
    PERFORMER "Astral Doors"
    INDEX 01 45:56:44
  TRACK 13 AUDIO
    TITLE "Evil Spirits Fly"
    PERFORMER "Astral Doors"
    INDEX 01 49:53:55
  TRACK 14 AUDIO
    TITLE "When Darkness Comes"
    PERFORMER "Astral Doors"
    INDEX 01 54:06:38
  TRACK 15 AUDIO
    TITLE "Stockholm Bloodbath (Bonus Track)"
    PERFORMER "Astral Doors"
    INDEX 01 59:11:03

2011 - Jerusalem

REM GENRE "Heavy Metal"
REM DATE 2011
REM DISCID 8D0BA30B
REM COMMENT "ExactAudioCopy v1.0b3"
PERFORMER "Astral Doors"
TITLE "Jerusalem"
FILE "Astral Doors - Jerusalem.flac" WAVE
  TRACK 01 AUDIO
    TITLE "Seventh Crusade"
    PERFORMER "Astral Doors"
    INDEX 01 00:00:00
  TRACK 02 AUDIO
    TITLE "With A Stranger's Eye"
    PERFORMER "Astral Doors"
    INDEX 01 03:41:56
  TRACK 03 AUDIO
    TITLE "Child Of Rock'n'Roll"
    PERFORMER "Astral Doors"
    INDEX 01 07:37:20
  TRACK 04 AUDIO
    TITLE "Pearl Harbor"
    PERFORMER "Astral Doors"
    INDEX 01 11:12:31
  TRACK 05 AUDIO
    TITLE "Lost Crucifix"
    PERFORMER "Astral Doors"
    INDEX 01 15:32:64
  TRACK 06 AUDIO
    TITLE "Babylon Rise"
    PERFORMER "Astral Doors"
    INDEX 01 22:04:59
  TRACK 07 AUDIO
    TITLE "Suicide Rime"
    PERFORMER "Astral Doors"
    INDEX 01 25:55:04
  TRACK 08 AUDIO
    TITLE "The Battle Of Jacob's Ford"
    PERFORMER "Astral Doors"
    INDEX 01 29:26:03
  TRACK 09 AUDIO
    TITLE "Operation Freedom"
    PERFORMER "Astral Doors"
    INDEX 01 35:18:09
  TRACK 10 AUDIO
    TITLE "The Day After Yesterday"
    PERFORMER "Astral Doors"
    INDEX 01 39:08:40
  TRACK 11 AUDIO
    TITLE "Jerusalem"
    PERFORMER "Astral Doors"
    INDEX 01 43:33:25

2011 - Jerusalem (Japanese Ed.)

REM GENRE "Heavy Metal"
REM DATE 2011
REM DISCID AC0D940D
REM COMMENT "ExactAudioCopy v1.3"
PERFORMER "Astral Doors"
TITLE "Jerusalem (Japan)"
FILE "Astral Doors - Jerusalem (Japan).flac" WAVE
  TRACK 01 AUDIO
    TITLE "Seventh Crusade"
    PERFORMER "Astral Doors"
    INDEX 01 00:00:00
  TRACK 02 AUDIO
    TITLE "With A Stranger's Eye"
    PERFORMER "Astral Doors"
    INDEX 01 03:39:57
  TRACK 03 AUDIO
    TITLE "Child Of Rock 'N' Roll"
    PERFORMER "Astral Doors"
    INDEX 00 07:33:21
    INDEX 01 07:35:21
  TRACK 04 AUDIO
    TITLE "Pearl Harbor"
    PERFORMER "Astral Doors"
    INDEX 00 11:08:33
    INDEX 01 11:10:33
  TRACK 05 AUDIO
    TITLE "Lost Crucifix"
    PERFORMER "Astral Doors"
    INDEX 00 15:28:67
    INDEX 01 15:30:67
  TRACK 06 AUDIO
    TITLE "Babylon Rise"
    PERFORMER "Astral Doors"
    INDEX 00 22:00:63
    INDEX 01 22:02:63
  TRACK 07 AUDIO
    TITLE "Suicide Rime"
    PERFORMER "Astral Doors"
    INDEX 00 25:51:09
    INDEX 01 25:53:09
  TRACK 08 AUDIO
    TITLE "The Battle Of Jacob's Ford"
    PERFORMER "Astral Doors"
    INDEX 00 29:22:09
    INDEX 01 29:24:09
  TRACK 09 AUDIO
    TITLE "Operation Freedom"
    PERFORMER "Astral Doors"
    INDEX 00 35:14:16
    INDEX 01 35:16:16
  TRACK 10 AUDIO
    TITLE "The Day After Yesterday"
    PERFORMER "Astral Doors"
    INDEX 00 39:04:48
    INDEX 01 39:06:48
  TRACK 11 AUDIO
    TITLE "Jerusalem"
    PERFORMER "Astral Doors"
    INDEX 00 43:29:34
    INDEX 01 43:31:34
  TRACK 12 AUDIO
    TITLE "Pearl Harbor (Exclusive Acoustic Version) (Bonus Track)"
    PERFORMER "Astral Doors"
    INDEX 00 49:37:68
    INDEX 01 49:39:68
  TRACK 13 AUDIO
    TITLE "Angel Of Love (Re-mixed 2002 Demo Version) (Bonus Track)"
    PERFORMER "Astral Doors"
    INDEX 00 53:33:53
    INDEX 01 53:35:53

2014 - Notes From The Shadows

REM GENRE "Heavy Metal"
REM DATE 2014
REM DISCID 8B0B860B
REM COMMENT "ExactAudioCopy v1.0b3"
PERFORMER "Astral Doors"
TITLE "Notes From The Shadows"
FILE "Astral Doors - Notes From The Shadows.flac" WAVE
  TRACK 01 AUDIO
    TITLE "The Last Temptation Of Christ"
    PERFORMER "Astral Doors"
    INDEX 01 00:00:00
  TRACK 02 AUDIO
    TITLE "Disciples Of The Dragon Lord"
    PERFORMER "Astral Doors"
    INDEX 01 03:23:52
  TRACK 03 AUDIO
    TITLE "Wailing Wall"
    PERFORMER "Astral Doors"
    INDEX 01 08:11:66
  TRACK 04 AUDIO
    TITLE "Shadowchaser"
    PERFORMER "Astral Doors"
    INDEX 00 13:37:38
    INDEX 01 13:38:38
  TRACK 05 AUDIO
    TITLE "Die Alone"
    PERFORMER "Astral Doors"
    INDEX 00 18:28:31
    INDEX 01 18:29:31
  TRACK 06 AUDIO
    TITLE "Hoodoo Ceremony"
    PERFORMER "Astral Doors"
    INDEX 01 27:42:60
  TRACK 07 AUDIO
    TITLE "Southern Conjuration"
    PERFORMER "Astral Doors"
    INDEX 01 29:07:06
  TRACK 08 AUDIO
    TITLE "Walker The Stalker"
    PERFORMER "Astral Doors"
    INDEX 00 32:52:74
    INDEX 01 32:53:74
  TRACK 09 AUDIO
    TITLE "Desert Nights"
    PERFORMER "Astral Doors"
    INDEX 01 36:42:66
  TRACK 10 AUDIO
    TITLE "In The Name Of Rock"
    PERFORMER "Astral Doors"
    INDEX 00 40:19:32
    INDEX 01 40:20:32
  TRACK 11 AUDIO
    TITLE "Confessions"
    PERFORMER "Astral Doors"
    INDEX 01 44:26:12

2017 - Black Eyed Children

REM GENRE "Heavy/Power Metal"
REM DATE 2017
REM DISCID 7D0BF40A
REM COMMENT "ExactAudioCopy v1.3"
PERFORMER "Astral Doors"
TITLE "Black Eyed Children"
FILE "Astral Doors - Black Eyed Children.flac" WAVE
  TRACK 01 AUDIO
    TITLE "We Cry Out"
    PERFORMER "Astral Doors"
    INDEX 01 00:00:00
  TRACK 02 AUDIO
    TITLE "Walls"
    PERFORMER "Astral Doors"
    INDEX 00 04:33:64
    INDEX 01 04:34:04
  TRACK 03 AUDIO
    TITLE "God is the Devil"
    PERFORMER "Astral Doors"
    INDEX 00 08:43:66
    INDEX 01 08:44:39
  TRACK 04 AUDIO
    TITLE "Die on Stage"
    PERFORMER "Astral Doors"
    INDEX 00 13:38:06
    INDEX 01 13:39:26
  TRACK 05 AUDIO
    TITLE "Tomorrow's Dead"
    PERFORMER "Astral Doors"
    INDEX 00 18:43:22
    INDEX 01 18:45:02
  TRACK 06 AUDIO
    TITLE "Good vs. Bad"
    PERFORMER "Astral Doors"
    INDEX 00 23:40:67
    INDEX 01 23:41:43
  TRACK 07 AUDIO
    TITLE "Suburban Song"
    PERFORMER "Astral Doors"
    INDEX 00 28:07:46
    INDEX 01 28:08:71
  TRACK 08 AUDIO
    TITLE "Lost Boy"
    PERFORMER "Astral Doors"
    INDEX 00 33:12:12
    INDEX 01 33:13:68
  TRACK 09 AUDIO
    TITLE "Slaves to Ourselves"
    PERFORMER "Astral Doors"
    INDEX 00 37:57:73
    INDEX 01 37:58:44
  TRACK 10 AUDIO
    TITLE "Black Eyed Children"
    PERFORMER "Astral Doors"
    INDEX 00 42:16:44
    INDEX 01 42:18:24
- --
[Profile] [PM]
Display posts from previous:    

The time now is: Today 08:33

All times are GMT



You cannot post new topics in this forum
You cannot reply to topics in this forum
You cannot edit your posts in this forum
You cannot delete your posts in this forum
You cannot vote in polls in this forum
You cannot attach files in this forum
You cannot download files in this forum