Asia • Valkyrie [2013, Rock, HDTV 1080i]

 
Автор Сообщение

reversefile ®

Пол:

Стаж: 4 года 5 месяцев

Сообщений: 842

Откуда: ReverseFile.org



Награды: Нет

Торрент-статистика

Создавать темы 11-Авг-2014 18:53

[Цитировать]


VALKYRIE


Жанр: Rock
Продолжительность: 00:04:34
Год выпуска: 2013
Качество: HDTV 1080i
Контейнер: TS
Видео кодек: H.264
Аудио кодек: AC3
Видео: MPEG4 Video (H264) 1920x1080 25fps 4785Kbps
Аудио: Dolby AC3 48000Hz stereo 384kbps

Отчёт MediaInfo / BDInfo

GeneralID : 400 (0x190)Complete name : L:\Asia - Walkyrie.tsFormat : MPEG-TSFile size : 191 MiBDuration : 4mn 32sOverall bit rate mode : VariableOverall bit rate : 5 850 Kbps
VideoID : 359 (0x167)Menu ID : 13020 (0x32DC)Format : AVCFormat/Info : Advanced Video CodecFormat profile : Main@L4.0Format settings, CABAC : YesFormat settings, ReFrames : 3 framesCodec ID : 27Duration : 4mn 31sBit rate : 4 785 KbpsWidth : 1 920 pixelsHeight : 1 080 pixelsDisplay aspect ratio : 16:9Frame rate : 25.000 fpsStandard : ComponentColor space : YUVChroma subsampling : 4:2:0Bit depth : 8 bitsScan type : InterlacedBits/(Pixel*Frame) : 0.092Stream size : 155 MiB (81%)Encryption : TPS-Crypt or ViaccessColor primaries : BT.601 PALTransfer characteristics : BT.470 System B, BT.470 System GMatrix coefficients : BT.601
Audio #1ID : 376 (0x178)Menu ID : 13020 (0x32DC)Format : AC-3Format/Info : Audio Coding 3Mode extension : CM (complete main)Format settings, Endianness : BigCodec ID : 6Duration : 4mn 32sBit rate mode : ConstantBit rate : 384 KbpsChannel(s) : 2 channelsChannel positions : Front: L RSampling rate : 48.0 KHzBit depth : 16 bitsCompression mode : LossyDelay relative to video : -1s 17msStream size : 12.5 MiB (7%)Language : PolishEncryption : TPS-Crypt or Viaccess
Audio #2ID : 377 (0x179)Menu ID : 13020 (0x32DC)Format : AC-3Format/Info : Audio Coding 3Mode extension : CM (complete main)Format settings, Endianness : BigCodec ID : 6Duration : 4mn 32sBit rate mode : ConstantBit rate : 384 KbpsChannel(s) : 2 channelsChannel positions : Front: L RSampling rate : 48.0 KHzBit depth : 16 bitsCompression mode : LossyDelay relative to video : -943msStream size : 12.5 MiB (7%)Language : English
Мои раздачи ®">

Скриншоты Мои раздачи ®


http://torrentfilm.net/forum/tracker.php?rid=9539252
[Профиль] [ЛС]
Кто просматривает тему:

Показать сообщения:    

Текущее время: Сегодня 16:33

Часовой пояс: GMT



Вы не можете начинать темы
Вы не можете отвечать на сообщения
Вы не можете редактировать свои сообщения
Вы не можете удалять свои сообщения
Вы не можете голосовать в опросах
Вы не можете прикреплять файлы к сообщениям
Вы не можете скачивать файлы