(Art Rock / Classic Rock) David Bowie - Blackstar - 2016 [FLAC, tracks +.cue, lossless]

 
Автор Сообщение

sergej644 ®

Пол:

Стаж: 4 года 11 месяцев

Сообщений: 6043

Откуда: Soviet Union



Награды: Нет

Торрент-статистика

Создавать темы 30-Янв-2016 16:09

[Цитировать]

-David Bowie - Blackstar--
Год издания: 2016
Страна: UK
Жанр: Art Rock / Classic Rock
Продолжительность: 00:41:18- Лейбл издания: ISO Records • Columbia Records • Sony Music
Тип альбома: Album
Страна-выпуска диска: EU
Номер по каталогу: 88875173862- Формат: FLAC
Битрейт аудио: Lossless
Тип рипа: tracks +.cue
Наличие сканов в содержимом раздачи: да
-

Трэклист


01. Blackstar (09:58)
02. 'Tis a Pity She Was a Whore (04:53)
03. Lazarus (06:23)
04. Sue (Or In a Season of Crime) (04:41)
05. Girl Loves Me (04:52)
06. Dollar Days (04:45)
07. I Can't Give Everything Away (05:48)
-

Лог создания рипа

X Lossless Decoder version 20141129 (148.1)
XLD extraction logfile from 2016-01-07 20:01:59 +0100
David Bowie / Blackstar
Used drive : MATSHITA DVD-R   UJ-8A8 (revision HB14)
Media type : Pressed CD
Ripper mode             : XLD Secure Ripper
Disable audio cache     : OK for the drive with a cache less than 1375KiB
Make use of C2 pointers : NO
Read offset correction  : 102
Max retry count         : 20
Gap status              : Analyzed, Appended (except HTOA)
TOC of the extracted CD
     Track |   Start  |  Length  | Start sector | End sector
    ---------------------------------------------------------
        1  | 00:00:00 | 09:57:70 |         0    |    44844
        2  | 09:57:70 | 04:52:47 |     44845    |    66791
        3  | 14:50:42 | 06:22:29 |     66792    |    95470
        4  | 21:12:71 | 04:40:28 |     95471    |   116498
        5  | 25:53:24 | 04:51:71 |    116499    |   138394
        6  | 30:45:20 | 04:44:61 |    138395    |   159755
        7  | 35:30:06 | 05:47:21 |    159756    |   185801
AccurateRip Summary
    Disc not found in AccurateRip DB.
All Tracks
    Album gain               : -9.12 dB
    Peak                     : 1.000000
    Statistics
        Read error                           : 0
        Jitter error (maybe fixed)           : 0
        Retry sector count                   : 0
        Damaged sector count                 : 0
Track 01
    Filename : /Users/Shared/01 Blackstar.flac
    Pre-gap length : 00:02:00
    Track gain               : -8.17 dB
    Peak                     : 1.000000
    CRC32 hash (test run)    : CDE4DA5E
    CRC32 hash               : CDE4DA5E
    CRC32 hash (skip zero)   : 41BC0F2F
    AccurateRip v1 signature : 93A5D674
    AccurateRip v2 signature : 0136BCB7
        ->Track not present in AccurateRip database.
    Statistics
        Read error                           : 0
        Jitter error (maybe fixed)           : 0
        Retry sector count                   : 0
        Damaged sector count                 : 0
Track 02
    Filename : /Users/Shared/02 'Tis a Pity She Was a Whore.flac
    Track gain               : -9.76 dB
    Peak                     : 1.000000
    CRC32 hash (test run)    : 5EAABD5E
    CRC32 hash               : 5EAABD5E
    CRC32 hash (skip zero)   : 5711A22E
    AccurateRip v1 signature : EC70B451
    AccurateRip v2 signature : 0E90A083
        ->Track not present in AccurateRip database.
    Statistics
        Read error                           : 0
        Jitter error (maybe fixed)           : 0
        Retry sector count                   : 0
        Damaged sector count                 : 0
Track 03
    Filename : /Users/Shared/03 Lazarus.flac
    Track gain               : -9.15 dB
    Peak                     : 1.000000
    CRC32 hash (test run)    : 27D67D7B
    CRC32 hash               : 27D67D7B
    CRC32 hash (skip zero)   : 66E6C671
    AccurateRip v1 signature : D83AC704
    AccurateRip v2 signature : C4657A5C
        ->Track not present in AccurateRip database.
    Statistics
        Read error                           : 0
        Jitter error (maybe fixed)           : 0
        Retry sector count                   : 0
        Damaged sector count                 : 0
Track 04
    Filename : /Users/Shared/04 Sue (Or In a Season of Crime).flac
    Track gain               : -9.25 dB
    Peak                     : 1.000000
    CRC32 hash (test run)    : A963D5AC
    CRC32 hash               : A963D5AC
    CRC32 hash (skip zero)   : 180F1380
    AccurateRip v1 signature : 24988F44
    AccurateRip v2 signature : 3CF7F700
        ->Track not present in AccurateRip database.
    Statistics
        Read error                           : 0
        Jitter error (maybe fixed)           : 0
        Retry sector count                   : 0
        Damaged sector count                 : 0
Track 05
    Filename : /Users/Shared/05 Girl Loves Me.flac
    Track gain               : -9.00 dB
    Peak                     : 1.000000
    CRC32 hash (test run)    : 4295B04A
    CRC32 hash               : 4295B04A
    CRC32 hash (skip zero)   : 7493816C
    AccurateRip v1 signature : 354EB9FF
    AccurateRip v2 signature : BD5949C8
        ->Track not present in AccurateRip database.
    Statistics
        Read error                           : 0
        Jitter error (maybe fixed)           : 0
        Retry sector count                   : 0
        Damaged sector count                 : 0
Track 06
    Filename : /Users/Shared/06 Dollar Days.flac
    Track gain               : -8.57 dB
    Peak                     : 1.000000
    CRC32 hash (test run)    : 09CF2FEE
    CRC32 hash               : 09CF2FEE
    CRC32 hash (skip zero)   : 4EB41C35
    AccurateRip v1 signature : 51E8A8D4
    AccurateRip v2 signature : 3E012F86
        ->Track not present in AccurateRip database.
    Statistics
        Read error                           : 0
        Jitter error (maybe fixed)           : 0
        Retry sector count                   : 0
        Damaged sector count                 : 0
Track 07
    Filename : /Users/Shared/07 I Can't Give Everything Away.flac
    Track gain               : -9.38 dB
    Peak                     : 1.000000
    CRC32 hash (test run)    : 852ADC18
    CRC32 hash               : 852ADC18
    CRC32 hash (skip zero)   : 2CDDEEB2
    AccurateRip v1 signature : 3529B741
    AccurateRip v2 signature : 6ED6F08B
        ->Track not present in AccurateRip database.
    Statistics
        Read error                           : 0
        Jitter error (maybe fixed)           : 0
        Retry sector count                   : 0
        Damaged sector count                 : 0
No errors occurred
End of status report

Индексная карта (non-compilant .cue)

TITLE "Blackstar"
PERFORMER "David Bowie"
CATALOG 0888751738621
REM DATE "2016"
REM DISCNUMBER 1
REM TOTALDISCS 1
REM DISCID 6609AD07
REM REPLAYGAIN_ALBUM_GAIN -9.12 dB
REM REPLAYGAIN_ALBUM_PEAK 1.000000
FILE "01 Blackstar.flac" WAVE
  TRACK 01 AUDIO
    TITLE "Blackstar"
    PERFORMER "David Bowie"
    ISRC USRF31500001
    REM REPLAYGAIN_TRACK_GAIN -8.17 dB
    REM REPLAYGAIN_TRACK_PEAK 1.000000
    INDEX 01 00:00:00
FILE "02 'Tis a Pity She Was a Whore.flac" WAVE
  TRACK 02 AUDIO
    TITLE "'Tis a Pity She Was a Whore"
    PERFORMER "David Bowie"
    ISRC USRF31500002
    REM REPLAYGAIN_TRACK_GAIN -9.76 dB
    REM REPLAYGAIN_TRACK_PEAK 1.000000
    INDEX 01 00:00:00
FILE "03 Lazarus.flac" WAVE
  TRACK 03 AUDIO
    TITLE "Lazarus"
    PERFORMER "David Bowie"
    ISRC USRF31500003
    REM REPLAYGAIN_TRACK_GAIN -9.15 dB
    REM REPLAYGAIN_TRACK_PEAK 1.000000
    INDEX 01 00:00:00
FILE "04 Sue (Or In a Season of Crime).flac" WAVE
  TRACK 04 AUDIO
    TITLE "Sue (Or In a Season of Crime)"
    PERFORMER "David Bowie"
    ISRC USRF31500004
    REM REPLAYGAIN_TRACK_GAIN -9.25 dB
    REM REPLAYGAIN_TRACK_PEAK 1.000000
    INDEX 01 00:00:00
FILE "05 Girl Loves Me.flac" WAVE
  TRACK 05 AUDIO
    TITLE "Girl Loves Me"
    PERFORMER "David Bowie"
    ISRC USRF31500005
    REM REPLAYGAIN_TRACK_GAIN -9.00 dB
    REM REPLAYGAIN_TRACK_PEAK 1.000000
    INDEX 01 00:00:00
FILE "06 Dollar Days.flac" WAVE
  TRACK 06 AUDIO
    TITLE "Dollar Days"
    PERFORMER "David Bowie"
    ISRC USRF31500006
    REM REPLAYGAIN_TRACK_GAIN -8.57 dB
    REM REPLAYGAIN_TRACK_PEAK 1.000000
    INDEX 01 00:00:00
FILE "07 I Can't Give Everything Away.flac" WAVE
  TRACK 07 AUDIO
    TITLE "I Can't Give Everything Away"
    PERFORMER "David Bowie"
    ISRC USRF31500007
    REM REPLAYGAIN_TRACK_GAIN -9.38 dB
    REM REPLAYGAIN_TRACK_PEAK 1.000000
    INDEX 01 00:00:00
--
[Профиль] [ЛС]
Кто просматривает тему:

Показать сообщения:    

Текущее время: Сегодня 04:18

Часовой пояс: GMT



Вы не можете начинать темы
Вы не можете отвечать на сообщения
Вы не можете редактировать свои сообщения
Вы не можете удалять свои сообщения
Вы не можете голосовать в опросах
Вы не можете прикреплять файлы к сообщениям
Вы не можете скачивать файлы