Armin van Buuren live at Ultra Music Festival 2015 (2015) WEBRip 720p

 
Автор Сообщение

BOSS ®

Пол:

Стаж: 2 года 1 месяц

Сообщений: 3735

Откуда: ODESSA



Награды: 20 (Подробнее)

Top Keeper 1 (Количество: 1) Top Seeder 2 (Количество: 1) Mega Seeder 3 (Количество: 1)
Торрент-статистика

Создавать темы 12-Апр-2015 20:45

[Цитировать]

Информация о фильме
Оригинальное название: Armin van Buuren live at Ultra Music Festival 2015
Год выхода: 2015
Жанр: Trance, Progressive Trance

Треклист:

1) 00:00 Armin van Buuren & Mark Sixma - Panta Rhei (Intro Mix) 
2) 6:15 Armin van Buuren feat. Mr. Probz - Another You (Mark Sixma Remix) 
3. 10:00 Armin van Buuren & W&W – ID (Your House Is Mine)
4) 13:25 Dimitri Vegas & Like Mike & Ummet Ozcan vs. ID vs. Gareth Emery feat. Bo Bruce - The Hum vs. U vs. ID (Armin van Buuren Mashup) 
5) 16:38 Talemono vs. Above & Beyond feat. Zoë Johnston - Overload vs. We’re All We Need (Armin van Buuren Mashup) 
6) 21:36 Armin van Buuren vs. W&W vs. ID - ID vs. Ping Pong vs. Bigfoot (Armin van Buuren Mashup) 
7) 24:14 Armin van Buuren feat. Trevor Guthrie - Together vs. This Is What It Feels Like (Armin van Buuren Mashup) 
8) 26:57 Dash Berlin feat. Roxanne Emery - Shelter (MaRLo Remix) 
9) 30:10 Willem De Roo vs. Bogdan Vix & Renee Stahl vs. Armin van Buuren feat. Laura Jansen - Inception vs. Forever vs. Sound Of The Drums (Armin van Buuren Mashup) 
10) 33:48 Marcel Woods - Advanced (MaRLo Remix) 
11) 36:46 Gaia vs. Lost Frequencies - Carnation vs. Are You With Me (Armin van Buuren Mashup) 
12) 39:29 Jorn Van Deynhoven - Freaks (Festival Mix)
13) 42:28 Gaia - In Principio
14) 45:06 Ramin Djawadi - Game Of Thrones (ID Remix)
15) 49:31 Armin van Buuren pres. Rising Star feat. Betsie Larkin - Safe Inside You
16) 54:27Armin Van Buuren & Andrew Rayel & Talla 2XLC vs. Cosmic Gate - Eiforya vs. Exploration of Space (Armin van Buuren Mashup)

MediaInfo

General
Complete name : G:DCDownloadsArmin van Buuren live at Ultra Music Festival 2015.mp4
Format : MPEG-4
Format profile : Base Media / Version 2
Codec ID : mp42
File size : 1.10 GiB
Duration : 58mn 28s
Overall bit rate mode : Variable
Overall bit rate : 2 681 Kbps
Encoded date : UTC 2015-04-02 12:59:03
Tagged date : UTC 2015-04-02 12:59:03
gsst : 0
gstd : 3508301
gssd : BD401F945HH1428865870310530
gshh : r2---sn-oxuctoxu-xbve.googlevideo.com
Video #1
ID : 1
Format : AVC
Format/Info : Advanced Video Codec
Format profile : High@L3.1
Format settings, CABAC : Yes
Format settings, ReFrames : 1 frame
Codec ID : avc1
Codec ID/Info : Advanced Video Coding
Duration : 58mn 28s
Bit rate : 2 487 Kbps
Maximum bit rate : 12.2 Mbps
Width : 1 280 pixels
Height : 720 pixels
Display aspect ratio : 16:9
Frame rate mode : Constant
Frame rate : 29.970 fps
Color space : YUV
Chroma subsampling : 4:2:0
Bit depth : 8 bits
Scan type : Progressive
Bits/(Pixel*Frame) : 0.090
Stream size : 1.02 GiB (93%)
Tagged date : UTC 2015-04-02 13:01:23
Audio #2
ID : 2
Format : AAC
Format/Info : Advanced Audio Codec
Format profile : LC
Codec ID : 40
Duration : 58mn 28s
Bit rate mode : Variable
Bit rate : 192 Kbps
Maximum bit rate : 204 Kbps
Channel(s) : 2 channels
Channel positions : Front: L R
Sampling rate : 44.1 KHz
Compression mode : Lossy
Stream size : 80.3 MiB (7%)
Title : IsoMedia File Produced by Google, 5-11-2011
Language : English
Encoded date : UTC 2015-04-02 13:00:47
Tagged date : UTC 2015-04-02 13:01:23
Продолжительность: 00:58:28
Файл
Кодек: MPEG-4 AVC
Качество: WEBRip 720p
Видео: 2487 Кбит/с, 1280x720, 29.97 кадр/с
Звук: AAC, 2 ch, 192 Кбит/с

Скриншоты


[Профиль] [ЛС]
Показать сообщения:    

Текущее время: Сегодня 10:48

Часовой пояс: GMT



Вы не можете начинать темы
Вы не можете отвечать на сообщения
Вы не можете редактировать свои сообщения
Вы не можете удалять свои сообщения
Вы не можете голосовать в опросах
Вы не можете прикреплять файлы к сообщениям
Вы не можете скачивать файлы