Arctic Monkeys • Lollapalooza Festival [2012, Indie Rock, HDTV 1080i]

 
Автор Сообщение

reversefile ®

Пол:

Стаж: 4 года 5 месяцев

Сообщений: 842

Откуда: ReverseFile.org



Награды: Нет

Торрент-статистика

Создавать темы 11-Авг-2014 19:04

[Цитировать]

Arctic Monkeys



Жанр: Indie Rock
Продолжительность: 00:13:59
Год выпуска: 2012
Качество: HDTV 1080i
Контейнер: TS
Видео кодек: H.264
Аудио кодек: AC3
Видео: MPEG4 Video (H264) 1920x1080 29.97fps 8983Kbps
Аудио: Dolby AC3 48000Hz 6ch 384kbps

Треклист

01. Don't Sit Down 'Cause I've Moved Your Chair
02. I Bet You Look Good on the Dancefloor
03. Fluorescent Adolescent
04. 505

Отчёт MediaInfo / BDInfo

GeneralID : 1 (0x1)Complete name : C:\Users\meloman67\Desktop\Arctic Monkeys - Lollapalooza Festival 2012 .tsFormat : MPEG-TSFile size : 986 MiBDuration : 13mn 58sOverall bit rate mode : VariableOverall bit rate : 9 858 KbpsMaximum Overall bit rate : 35.5 Mbps
VideoID : 4113 (0x1011)Menu ID : 1 (0x1)Format : AVCFormat/Info : Advanced Video CodecFormat profile : High@L4.1Format settings, CABAC : YesFormat settings, ReFrames : 3 framesCodec ID : 27Duration : 13mn 58sBit rate mode : VariableBit rate : 8 983 KbpsMaximum bit rate : 15.0 MbpsWidth : 1 920 pixelsHeight : 1 080 pixelsDisplay aspect ratio : 16:9Frame rate : 29.970 fpsStandard : ComponentColor space : YUVChroma subsampling : 4:2:0Bit depth : 8 bitsScan type : MBAFFBits/(Pixel*Frame) : 0.145Stream size : 898 MiB (91%)Writing library : x264 core 120Color primaries : BT.709Transfer characteristics : BT.709Matrix coefficients : BT.709
AudioID : 4352 (0x1100)Menu ID : 1 (0x1)Format : AC-3Format/Info : Audio Coding 3Mode extension : CM (complete main)Format settings, Endianness : BigCodec ID : 129Duration : 13mn 58sBit rate mode : ConstantBit rate : 384 KbpsChannel(s) : 6 channelsChannel positions : Front: L C R, Side: L R, LFESampling rate : 48.0 KHzBit depth : 16 bitsCompression mode : LossyStream size : 38.4 MiB (4%)
[Профиль] [ЛС]
Кто просматривает тему:

Показать сообщения:    

Текущее время: Сегодня 09:08

Часовой пояс: GMT



Вы не можете начинать темы
Вы не можете отвечать на сообщения
Вы не можете редактировать свои сообщения
Вы не можете удалять свои сообщения
Вы не можете голосовать в опросах
Вы не можете прикреплять файлы к сообщениям
Вы не можете скачивать файлы