Arabesque - Best Three (1995) Japan [FLAC|Lossless]<Disco>

 
Автор Сообщение

sergej644 ®

Пол:

Стаж: 4 года 11 месяцев

Сообщений: 6041

Откуда: Soviet Union



Награды: Нет

Торрент-статистика

Создавать темы 24-Дек-2014 22:24

[Цитировать]

-Arabesque - Best Three (1995)- Год: 1995
Лейбл: Victor
Каталог #: VICP-5596
Жанр: Disco
Продолжительность: 01:00:46
Кодек: FLAC
Битрейт: Lossless
Тип битрейта: image +.cue
Треклист:
1. Time To Say "Good Bye" (Jean Frankfurter - John Moering)
2. Heart On Fire (Jean Frankfurter - John Moering)
3. Parties In A Penthouse (Jean Frankfurter - John Moering)
4. Dance Dance Dance (Jean Frankfurter - John Moering)
5. Hit The Jackpot (Jean Frankfurter - John Moering)
6. Young Fingers Get Burnt (Jean Frankfurter - John Moering)
7. Make Love Whenevr You Can (Jean Frankfurter - John Moering)
8. Peppermint Jack (Jean Frankfurter - John Moering)
9. High Life (Jean Frankfurter - John Moering)
10. In For a Penny, In For a Pound (Jean Frankfurter - John Moering)
11. Caballero (Jean Frankfurter - John Moering)
12. Midnight Dancer (Jean Frankfurter - John Moering)
13. Billy's Barbeque (Jean Frankfurter - John Moering)
14. Jingle Jangle Joe (Jean Frankfurter - John Moering)
15. Fly High Little Butterfly (Jean Frankfurter - John Moering)
16. Buggy Boy (Ben Juris - Benny Lux)
17. Friday Night (Jean Frankfurter - John Moering)
18. Hello Mr. Monkey (Ben Juris - Benny Lux)

Отчёт ЕАС&#58;

Exact Audio Copy V0.99 prebeta 5 from 4. May 2009
Отчёт EAC об извлечении, выполненном 21. сентября 2011, 3:43
Arabesque / Best
Дисковод: PLEXTOR CD-R   PREMIUM2   Adapter: 0  ID: 0
Режим чтения                 : Достоверность
Использование точного потока : Да
Отключение кэша аудио        : Да
Использование указателей C2  : Нет
Коррекция смещения при чтении                     : 30
Способность читать области Lead-in и Lead-out     : Нет
Заполнение пропущенных сэмплов тишиной            : Да
Удаление блоков с тишиной в начале и конце        : Нет
При вычислениях CRC использовались нулевые сэмплы : Да
Интерфейс                                         : Встроенный Win32-интерфейс для Win NT/2000
Выходной формат : Внутренние WAV-операции
Формат сэмплов  : 44.100 Гц; 16 бит; стерео
TOC извлечённого CD
     Трек |   Старт  | Длительность | Начальный сектор | Конечный сектор
    ---------------------------------------------------------------------
       1  |  0:00.37 |    3:37.00   |          37      |      16311
       2  |  3:37.37 |    3:35.63   |       16312      |      32499
       3  |  7:13.25 |    3:18.30   |       32500      |      47379
       4  | 10:31.55 |    3:10.15   |       47380      |      61644
       5  | 13:41.70 |    3:16.32   |       61645      |      76376
       6  | 16:58.27 |    3:07.65   |       76377      |      90466
       7  | 20:06.17 |    3:45.03   |       90467      |     107344
       8  | 23:51.20 |    3:06.40   |      107345      |     121334
       9  | 26:57.60 |    3:05.17   |      121335      |     135226
      10  | 30:03.02 |    2:58.58   |      135227      |     148634
      11  | 33:01.60 |    3:59.35   |      148635      |     166594
      12  | 37:01.20 |    3:41.22   |      166595      |     183191
      13  | 40:42.42 |    2:48.43   |      183192      |     195834
      14  | 43:31.10 |    3:09.30   |      195835      |     210039
      15  | 46:40.40 |    3:26.55   |      210040      |     225544
      16  | 50:07.20 |    2:56.22   |      225545      |     238766
      17  | 53:03.42 |    4:15.38   |      238767      |     257929
      18  | 57:19.05 |    3:28.05   |      257930      |     273534
Характеристики диапазона извлечения и сообщения об ошибках
Выбранный диапазон
     Имя файла G:\Arabesque - Best One\Arabesque - Best.wav
     Пиковый уровень 100.0 %
     Качество диапазона 99.9 %
     CRC теста 85B918F7
     CRC копии 85B918F7
     Копирование... OK
Ошибок не произошло
AccurateRip: сводка
Трек  1  точное извлечение (доверие 8)  [6082EC31]
Трек  2  точное извлечение (доверие 8)  [C56FA876]
Трек  3  точное извлечение (доверие 7)  [93CDCE3A]
Трек  4  точное извлечение (доверие 7)  [F4061DC1]
Трек  5  точное извлечение (доверие 7)  [D6E4A132]
Трек  6  точное извлечение (доверие 7)  [2F7E958D]
Трек  7  точное извлечение (доверие 7)  [CB8F0F2E]
Трек  8  точное извлечение (доверие 7)  [928A736C]
Трек  9  точное извлечение (доверие 7)  [6DBDE862]
Трек 10  точное извлечение (доверие 7)  [60790D08]
Трек 11  точное извлечение (доверие 7)  [423826B2]
Трек 12  точное извлечение (доверие 8)  [013C2A6A]
Трек 13  точное извлечение (доверие 7)  [0B994929]
Трек 14  точное извлечение (доверие 7)  [EA1E161C]
Трек 15  точное извлечение (доверие 8)  [FEF93676]
Трек 16  точное извлечение (доверие 7)  [46ED7B97]
Трек 17  точное извлечение (доверие 8)  [F543B161]
Трек 18  точное извлечение (доверие 8)  [BDB5977F]
Все треки извлечены точно
Конец отчёта

Отчёт auCDtect Task manager&#58;

-----------------------
DON'T MODIFY THIS FILE
-----------------------
PERFORMER: auCDtect Task Manager, ver. 1.5.1RC4 build 1.5.1.5
Copyright (c) 2008-2010 y-soft. All rights reserved
http://y-soft.org
ANALYZER: auCDtect: CD records authenticity detector, version 0.8.2
Copyright (c) 2004 Oleg Berngardt. All rights reserved.
Copyright (c) 2004 Alexander Djourik. All rights reserved.
FILE: Arabesque - Best.flac
  Size: 432094178 Hash: 3F1482AC8AA078F0CA0F39810917EB03 Accuracy: -m0
  Conclusion: CDDA 100%
  Signature: BD7257C1956E6C8DBAE85CDD2C3F5BC8133FCE38

Содержание индексной карты (.CUE&#41;&#58;

REM GENRE Disco
REM DATE 1996
REM DISCID D80E3F12
REM COMMENT "ExactAudioCopy v0.99pb5"
PERFORMER "Arabesque"
TITLE "Best"
FILE "Arabesque - Best.flac" WAVE
  TRACK 01 AUDIO
    TITLE "Time To Say - Good Bye "
    PERFORMER "Arabesque"
    INDEX 00 00:00:00
    INDEX 01 00:00:37
  TRACK 02 AUDIO
    TITLE "Heart On Fire"
    PERFORMER "Arabesque"
    INDEX 00 03:37:28
    INDEX 01 03:37:37
  TRACK 03 AUDIO
    TITLE "Parties In  A Penthouse"
    PERFORMER "Arabesque"
    INDEX 00 07:13:03
    INDEX 01 07:13:25
  TRACK 04 AUDIO
    TITLE "Dance Dance Dance"
    PERFORMER "Arabesque"
    INDEX 00 10:30:51
    INDEX 01 10:31:55
  TRACK 05 AUDIO
    TITLE "Hit The Jackpot"
    PERFORMER "Arabesque"
    INDEX 00 13:40:53
    INDEX 01 13:41:70
  TRACK 06 AUDIO
    TITLE "Young Fingers Get Burnt"
    PERFORMER "Arabesque"
    INDEX 00 16:57:23
    INDEX 01 16:58:27
  TRACK 07 AUDIO
    TITLE "Make Love Whenever You Can"
    PERFORMER "Arabesque"
    INDEX 00 20:05:58
    INDEX 01 20:06:17
  TRACK 08 AUDIO
    TITLE "Peppermint Jack"
    PERFORMER "Arabesque"
    INDEX 00 23:50:38
    INDEX 01 23:51:20
  TRACK 09 AUDIO
    TITLE "High Life"
    PERFORMER "Arabesque"
    INDEX 00 26:56:51
    INDEX 01 26:57:60
  TRACK 10 AUDIO
    TITLE "In For A Penny, In For A Pound"
    PERFORMER "Arabesque"
    INDEX 01 30:03:02
  TRACK 11 AUDIO
    TITLE "Caballero"
    PERFORMER "Arabesque"
    INDEX 00 33:01:56
    INDEX 01 33:01:60
  TRACK 12 AUDIO
    TITLE "Midnight Danger"
    PERFORMER "Arabesque"
    INDEX 00 37:01:06
    INDEX 01 37:01:20
  TRACK 13 AUDIO
    TITLE "Billy's Barbeque"
    PERFORMER "Arabesque"
    INDEX 00 40:41:56
    INDEX 01 40:42:42
  TRACK 14 AUDIO
    TITLE "Jingle Jangle Joe"
    PERFORMER "Arabesque"
    INDEX 00 43:30:18
    INDEX 01 43:31:10
  TRACK 15 AUDIO
    TITLE "Fly High Little Butterfly"
    PERFORMER "Arabesque"
    INDEX 00 46:40:18
    INDEX 01 46:40:40
  TRACK 16 AUDIO
    TITLE "Buggy Boy"
    PERFORMER "Arabesque"
    INDEX 00 50:06:48
    INDEX 01 50:07:20
  TRACK 17 AUDIO
    TITLE "Friday Night"
    PERFORMER "Arabesque"
    INDEX 01 53:03:42
  TRACK 18 AUDIO
    TITLE "Hello Mr. Monkey"
    PERFORMER "Arabesque"
    INDEX 01 57:19:05
[Профиль] [ЛС]

Создавать темы 13-Авг-2015 10:44 (спустя 7 месяцев 20 дней)

Топик был перенесен из форума Зарубежная в форум Technopop, Eurodance, Disco
sergej644
 
Кто просматривает тему:

Форум Тема Автор Размер
Technopop, Eurodance, Disco (EuroDisco) Arabesque - Complete Single Collection (2 SHM-CD 2010) - 2010, MP3, (tracks), 320 kbps sergej644 405 MB
Показать сообщения:    

Текущее время: Сегодня 18:59

Часовой пояс: GMT



Вы не можете начинать темы
Вы не можете отвечать на сообщения
Вы не можете редактировать свои сообщения
Вы не можете удалять свои сообщения
Вы не можете голосовать в опросах
Вы не можете прикреплять файлы к сообщениям
Вы не можете скачивать файлы