Apocalyptica - Live at Wacken Open Air 2014 [Cello Metal / Symphonic Metal, HDTV 720p]

 
Автор Сообщение

reversefile ®

Пол:

Стаж: 4 года 5 месяцев

Сообщений: 842

Откуда: ReverseFile.org



Награды: Нет

Торрент-статистика

Создавать темы 11-Авг-2014 18:53

[Цитировать]

Apocalyptica - Live at Wacken Open Air 2014
Жанр: Cello Metal / Symphonic Metal
Продолжительность: 00:16:10
Год выпуска: 2014
Описание: Самое свежее выступление на Wacken Open Air 2014
Треклист:
01 - Ludwig - Wonderland
02 - Nothing Else Matters
03 - Hall Of The Mountain King
Качество: HDTV 720p
Контейнер: TS
Видео кодек: H.264
Аудио кодек: AC3
Видео: Codec: V_MPEG4/ISO/AVC, 1280x720p 16:9, 12,1 Mbps, 50 fps
Аудио: AC3, Chann. 2: Sample rate:48 KHz, Bitrate: 448 Кb/s

Отчёт MediaInfo / BDInfo

GeneralComplete name : Apocalyptica-Wacken 2014.tsFormat : MPEG-TSFile size : 1.49 GiBDuration : 16mn 10sOverall bit rate : 13.2 Mbps
VideoFormat : AVCFormat/Info : Advanced Video CodecFormat profile : High@L4.0Format settings, CABAC : YesFormat settings, ReFrames : 6 framesFormat settings, GOP : M=4, N=29Codec ID : 27Duration : 16mn 9sBit rate : 12.1 MbpsWidth : 1 280 pixelsHeight : 720 pixelsDisplay aspect ratio : 16:9Frame rate : 50.000 fpsColor space : YUVChroma subsampling : 4:2:0Bit depth : 8 bitsScan type : ProgressiveBits/(Pixel*Frame) : 0.262Stream size : 1.36 GiB (92%)Color primaries : BT.709-5, BT.1361, IEC 61966-2-4, SMPTE RP177Transfer characteristics : BT.709-5, BT.1361Matrix coefficients : BT.709-5, BT.1361, IEC 61966-2-4 709, SMPTE RP177
AudioFormat : AC-3Format/Info : Audio Coding 3Mode extension : CM (complete main)Codec ID : 6Duration : 16mn 9sBit rate mode : ConstantBit rate : 448 KbpsChannel(s) : 2 channelsChannel positions : Front: L RSampling rate : 48.0 KHzBit depth : 16 bitsCompression mode : LossyDelay relative to video : 26msStream size : 51.8 MiB (3%)Language : German

Скриншоты


Wacken Open Air 2014

Avantasia - Live at Wacken Open Air 2014 HD http://torrentfilm.net/forum/viewtopic.php?t=4795602
Motorhead - Live at Wacken Open Air 2014 HD http://torrentfilm.net/forum/viewtopic.php?t=4795469
Slayer - Live at Wacken Open Air 2014 HD http://torrentfilm.net/forum/viewtopic.php?t=4796480
[Профиль] [ЛС]
Кто просматривает тему:

Форум Тема Автор Размер
Metal (Cello Metal, Symphonic Metal, Alt.Metal) Apocalyptica - Shadowmaker - 2015, MP3, 320 kbps достали все 98 MB
Показать сообщения:    

Текущее время: Сегодня 00:08

Часовой пояс: GMT



Вы не можете начинать темы
Вы не можете отвечать на сообщения
Вы не можете редактировать свои сообщения
Вы не можете удалять свои сообщения
Вы не можете голосовать в опросах
Вы не можете прикреплять файлы к сообщениям
Вы не можете скачивать файлы