Anthrax • Rock On The Range Festival [2015, Thrash Metal, HDTV 1080i]

 
Автор Сообщение

sergej644 ®

Пол:

Стаж: 4 года 11 месяцев

Сообщений: 6043

Откуда: Soviet Union



Награды: Нет

Торрент-статистика

Создавать темы 21-Май-2015 14:30

[Цитировать]





Жанр: Thrash Metal
Продолжительность: 00:32:00
Год выпуска: 2015
Качество: HDTV 1080i
Контейнер: TS
Видео кодек: MPEG2
Аудио кодек: AC3
Видео: MPEG2 Video 1920x1080 29.97fps 15.9 Mbps
Аудио: Dolby AC3 48000Hz 6ch 384kbps

Треклист

Caught in a Mosh
Got the Time (Joe Jackson cover)
Antisocial (Trust cover)
Fight 'Em 'Til You Can't
Hymn 1
In the End
Indians

Отчёт MediaInfo / BDInfo

General
ID                             : 1 (0x1)
Complete name                  : L:\Anthrax - Rock On The Range Festival 2015.ts
Format                         : MPEG-TS
File size                      : 3.82 GiB
Duration                       : 32mn 0s
Overall bit rate mode          : Variable
Overall bit rate               : 17.1 Mbps
Video
ID                             : 6081 (0x17C1)
Menu ID                        : 1 (0x1)
Format                         : MPEG Video
Format version                 : Version 2
Format profile                 : Main@High
Format settings, BVOP          : Yes
Format settings, Matrix        : Custom
Format settings, GOP           : Variable
Format settings, picture struc : Frame
Codec ID                       : 2
Duration                       : 32mn 0s
Bit rate mode                  : Variable
Bit rate                       : 15.9 Mbps
Maximum bit rate               : 18.0 Mbps
Width                          : 1 920 pixels
Height                         : 1 080 pixels
Display aspect ratio           : 16:9
Frame rate                     : 29.970 fps
Color space                    : YUV
Chroma subsampling             : 4:2:0
Bit depth                      : 8 bits
Scan type                      : Interlaced
Scan order                     : Top Field First
Compression mode               : Lossy
Bits/(Pixel*Frame)             : 0.255
Time code of first frame       : 00:00:00;00
Time code source               : Group of pictures header
Stream size                    : 3.55 GiB (93%)
Audio
ID                             : 6082 (0x17C2)
Menu ID                        : 1 (0x1)
Format                         : AC-3
Format/Info                    : Audio Coding 3
Mode extension                 : CM (complete main)
Format settings, Endianness    : Big
Codec ID                       : 129
Duration                       : 32mn 0s
Bit rate mode                  : Constant
Bit rate                       : 384 Kbps
Channel(s)                     : 6 channels
Channel positions              : Front: L C R, Side: L R, LFE
Sampling rate                  : 48.0 KHz
Bit depth                      : 16 bits
Compression mode               : Lossy
Delay relative to video        : 21ms
Stream size                    : 87.9 MiB (2%)
Language                       : English
[Профиль] [ЛС]
Кто просматривает тему:

Показать сообщения:    

Текущее время: Сегодня 20:31

Часовой пояс: GMT



Вы не можете начинать темы
Вы не можете отвечать на сообщения
Вы не можете редактировать свои сообщения
Вы не можете удалять свои сообщения
Вы не можете голосовать в опросах
Вы не можете прикреплять файлы к сообщениям
Вы не можете скачивать файлы