Animal Planet. Логово крокодилов-убийц / Lair of the Killer Crocs [2015 г., Документальный, путешествия, природа, HDTV 1080p]

 
Автор Сообщение

boba88 ®

Стаж: 7 месяцев 15 дней

Сообщений: 19



Награды: Нет

Торрент-статистика

Создавать темы 14-Мар-2017 21:41

[Цитировать]

Логово крокодилов-убийц / Lair of the Killer Crocs
Год выпуска: 2015
Страна: США, Animal Planet
Жанр: Документальный, путешествия, природа
Продолжительность: 00:43:28
Перевод: Профессиональный (одноголосый)
Описание: Популяция крокодилов в Австралии резко выросла, и при этом хищники становятся всё крупнее и опаснее. Мы узнаем, как их пытаются переселить ради спасения жизней.
Качество: HDTV
Формат: *.ts
Видео кодек: H.264
Аудио кодек: AC3
Видео: 1920 x 1080, ~8 947 Kbps
Аудио#1: Русский, AC3, 6 ch, 384 Kbps
Аудио#2: Английский, AC3, 6 ch, 384 Kbps

Скриншоты

Mediainfo:

Общее
Идентификатор : 1 (0x1)
Полное имя : F:\КИНО\Lair of the Killer Crocs.ts
Формат : MPEG-TS
Размер файла : 3,11 Гбайт
Продолжительность : 43 м. 29 с.
Режим общего битрейта : Переменный
Общий поток : 10,2 Мбит/сек
Видео
Идентификатор : 202 (0xCA)
Идентификатор меню : 2202 (0x89A)
Формат : AVC
Формат/Информация : Advanced Video Codec
Профиль формата : High@L4
Параметр CABAC формата : Да
Параметр ReFrames формата : 4 кадра
Идентификатор кодека : 27
Продолжительность : 43 м. 28 с.
Битрейт : 8947 Кбит/сек
Ширина : 1920 пикселей
Высота : 1080 пикселей
Соотношение сторон : 16:9
Частота кадров : 25,000 кадров/сек
Стандарт вещания : Component
Цветовое пространство : YUV
Субдискретизация насыщенности : 4:2:0
Битовая глубина : 8 бит
Тип развёртки : Чересстрочная
Метод сохранения типа развёртки : Раздельные поля
Порядок развёртки : Верхнее поле первое
Бит/(Пиксели*Кадры) : 0.173
Размер потока : 2,72 Гбайт (87%)
Цветовой диапазон : Limited
Основные цвета : BT.709
Характеристики трансфера : BT.709
Коэффициенты матрицы : BT.709
Аудио #1
Идентификатор : 302 (0x12E)
Идентификатор меню : 2202 (0x89A)
Формат : AC-3
Формат/Информация : Audio Coding 3
Параметр Endianness формата : Big
Идентификатор кодека : 6
Продолжительность : 43 м. 28 с.
Вид битрейта : Постоянный
Битрейт : 384 Кбит/сек
Каналы : 6 каналов
Расположение каналов : Front: L C R, Side: L R, LFE
Частота : 48,0 КГц
Частота кадров : 31,250 кадров/сек (1536 spf)
Битовая глубина : 16 бит
Метод сжатия : С потерями
Задержка видео : -40 мс.
Размер потока : 119 Мбайт (4%)
Язык : Russian
ServiceKind/String : Complete Main
Аудио #2
Идентификатор : 303 (0x12F)
Идентификатор меню : 2202 (0x89A)
Формат : AC-3
Формат/Информация : Audio Coding 3
Параметр Endianness формата : Big
Идентификатор кодека : 6
Продолжительность : 43 м. 28 с.
Вид битрейта : Постоянный
Битрейт : 384 Кбит/сек
Каналы : 6 каналов
Расположение каналов : Front: L C R, Side: L R, LFE
Частота : 48,0 КГц
Частота кадров : 31,250 кадров/сек (1536 spf)
Битовая глубина : 16 бит
Метод сжатия : С потерями
Задержка видео : -40 мс.
Размер потока : 119 Мбайт (4%)
Язык : English
ServiceKind/String : Complete Main
[Профиль] [ЛС]
Кто просматривает тему:

Форум Тема Автор Размер
Animal Planet Animal Planet. Тайная жизнь домашних питомцев / Secret life of pets [01-06] (2014) HDTVRip от GeneralFilm | P1 sergej644 1.6 GB
Animal Planet Animal Planet: Беловежская пуща: первозданный лес / The Primeval Forest of Belovezhskaya Pushcha (Anton Verstakov) [2015 г., Документальный, путешествия, флора, фауна, HDTVRip 720p] skorpionN 1.64 GB
Animal Planet Animal Planet: Голубые Багамы / Bahama Blue [серии 1-6 из 6] (Ian Herring) [2014 г., Документальный, природа, флора, фауна, HDTVRip 720p] skorpionN 9.49 GB
Animal Planet Animal Planet: Земля динозавров / When Dinosaurs Ruled (Jurassica) [сезон 1 серии 1-5 из 5] (Тони Митчелл, Саймон Ллойд, Дэвид Тибблс) [1999 г., Документальный, научно-познавательный, и... skorpionN 7.34 GB
Документальные HD Animal Planet: Неизведанный Индокитай /Wildest Indochina [серии 1-5 из 5] (2014) HDTVRip [720p] sergej644 7.52 GB
Animal Planet Animal Planet: Самые опасные змеи с Найджелом Марвином / Ten Deadliest Snakes with Nigel Marven [сезон 1 серии 1-4 из 4] (Алекс Минтон) [2014 г., Документальный, природа, флора, фауна, HDTVRip 720p] skorpionN 6.33 GB
Зарубежные сериалы Адская кошка / Animal Planet: My Cat From Hell [05x01-17] (2014) SATRip от HitWay | P2 Белочка 8.65 GB
Флора и фауна Адская кошка / Кот из ада / My Cat from Hell [2011-2014 гг., Документальный, TVRip / HDTVRip] [5 сезонов] Animal Planet reversefile 23.78 GB
Показать сообщения:    

Текущее время: Сегодня 15:50

Часовой пояс: GMT



Вы не можете начинать темы
Вы не можете отвечать на сообщения
Вы не можете редактировать свои сообщения
Вы не можете удалять свои сообщения
Вы не можете голосовать в опросах
Вы не можете прикреплять файлы к сообщениям
Вы не можете скачивать файлы