Angry Birds в кино / The Angry Birds Movie (2016) BDRemux 1080p | Лицензия

 
Автор Сообщение

достали все ®

Пол:

Стаж: 1 год 8 месяцев

Сообщений: 6565



Награды: 12 (Подробнее)

Mega Seeder 4 (Количество: 1) Mega Releaser 3 (Количество: 1) Top Releaser 2 (Количество: 1)
Торрент-статистика

Создавать темы 07-Сен-2016 04:14

[Цитировать]

Информация о фильме
Название: Angry Birds в кино
Оригинальное название: The Angry Birds Movie
Год выхода: 2016
Жанр: Мультфильм, боевик, комедия, семейный
Режиссер: Клэй Кэйтис, Фергал Рейли
В ролях: Питер Динклэйдж, Джейсон Судейкис, Кейт МакКиннон, Кигэн-Майкл Ки, Титус Берджесс, Шон Пенн, Билл Хейдер, Майя Рудольф, Айк Баринхолц, Дэнни МакБрайд
О фильме:
Из-за своего буйного нрава Ред постоянно попадает в различные передряги. После очередного фонтана агрессии местный суд приговаривает его к бессрочному посещению курсов управления гневом. Между делом, на птичий остров приплывают зеленые свиньи и обманом выкрадывают у птичек все их яйца. Ред и его друзья отправляются на поиски легендарного Могучего Орла, чтобы заручиться его поддержкой и вернуть похищенное.

Страна: Финляндия, США
Студия: Columbia Pictures, LStar Capital, Rovio Entertainment
Продолжительность: 01:37:14
Перевод: Дублированный | Лицензия
Файл
Кодек: MPEG-4
Качество: BDRemux 1080p
Видео: 1920x1080, 24.6 Mbit/s, 23.976 fps
Звук: Русский, украинский (AC3, 6 ch, 640 Кбит/с), английский (DTS-HD MA, 8 ch, 2701 Кбит/с)
Субтитры: Русские, английские

MI

Общее
Уникальный идентификатор : 204975557455938587533885545224565259133 (0x9A34DB3CD891998D8AFCDCE51CD57B7D)
Полное имя : D:ЗагрузкиThe.Angry.Birds.Movie.2016.D.BDREMUX.1080p.ExKinoRay.mkv
Формат : Matroska
Версия формата : Version 2
Размер файла : 19,4 Гбайт
Продолжительность : 1 ч. 37 м.
Режим общего битрейта : Переменный
Общий поток : 28,6 Мбит/сек
Название фильма : The.Angry.Birds.Movie.2016.D.BDREMUX.1080p.ExKinoRay
Дата кодирования : UTC 2016-09-07 00:14:13
Программа кодирования : mkvmerge v5.6.0 ('Kenya Kane') built on May 27 2012 16:44:04
Библиотека кодирования : libebml v1.2.3 + libmatroska v1.3.0
Видео
Идентификатор : 1
Формат : AVC
Формат/Информация : Advanced Video Codec
Профиль формата : High@L4.1
Параметр CABAC формата : Да
Параметр ReFrames формата : 2 кадра
Параметр GOP формата : M=1, N=10
Идентификатор кодека : V_MPEG4/ISO/AVC
Продолжительность : 1 ч. 37 м.
Вид битрейта : Переменный
Ширина : 1920 пикселей
Высота : 1080 пикселей
Соотношение сторон : 16:9
Режим частоты кадров : Постоянный
Частота кадров : 23,976 (24000/1001) кадра/сек
Цветовое пространство : YUV
Субдискретизация насыщенности : 4:2:0
Битовая глубина : 8 бит
Тип развёртки : Прогрессивная
Язык : English
Default : Да
Forced : Нет
Аудио #1
Идентификатор : 2
Формат : AC-3
Формат/Информация : Audio Coding 3
Расширение режима : CM (complete main)
Параметр Endianness формата : Big
Идентификатор кодека : A_AC3
Продолжительность : 1 ч. 37 м.
Вид битрейта : Постоянный
Битрейт : 640 Кбит/сек
Каналы : 6 каналов
Расположение каналов : Front: L C R, Side: L R, LFE
Частота : 48,0 КГц
Частота кадров : 31,250 кадров/сек (1536 spf)
Метод сжатия : С потерями
Размер потока : 445 Мбайт (2%)
Заголовок : Дублированный (Лицензия)
Язык : Russian
Default : Да
Forced : Нет
Аудио #2
Идентификатор : 3
Формат : AC-3
Формат/Информация : Audio Coding 3
Расширение режима : CM (complete main)
Параметр Endianness формата : Big
Идентификатор кодека : A_AC3
Продолжительность : 1 ч. 37 м.
Вид битрейта : Постоянный
Битрейт : 640 Кбит/сек
Каналы : 6 каналов
Расположение каналов : Front: L C R, Side: L R, LFE
Частота : 48,0 КГц
Частота кадров : 31,250 кадров/сек (1536 spf)
Метод сжатия : С потерями
Размер потока : 445 Мбайт (2%)
Заголовок : Дублированный (Лицензия)
Язык : Ukrainian
Default : Нет
Forced : Нет
Аудио #3
Идентификатор : 4
Формат : DTS
Формат/Информация : Digital Theater Systems
Профиль формата : MA / Core
Режим : 16
Параметр Endianness формата : Big
Идентификатор кодека : A_DTS
Продолжительность : 1 ч. 37 м.
Вид битрейта : Переменный / Постоянный
Битрейт : Неизвестно / 1509 Кбит/сек
Каналы : 8 каналов / 6 каналов
Расположение каналов : Front: L C R, Side: L R, Back: L R, LFE / Front: L C R, Side: L R, LFE
Частота : 48,0 КГц
Частота кадров : 93,750 кадра/сек (512 spf)
Битовая глубина : 16 бит
Метод сжатия : Без потерь / Lossy
Заголовок : Original
Язык : English
Default : Нет
Forced : Нет
Текст #1
Идентификатор : 5
Формат : UTF-8
Идентификатор кодека : S_TEXT/UTF8
Идентификатор кодека/Информация : UTF-8 Plain Text
Заголовок : Forced
Язык : Russian
Default : Да
Forced : Нет
Текст #2
Идентификатор : 6
Формат : UTF-8
Идентификатор кодека : S_TEXT/UTF8
Идентификатор кодека/Информация : UTF-8 Plain Text
Заголовок : Full
Язык : Russian
Default : Нет
Forced : Нет
Текст #3
Идентификатор : 7
Формат : UTF-8
Идентификатор кодека : S_TEXT/UTF8
Идентификатор кодека/Информация : UTF-8 Plain Text
Заголовок : Full
Язык : Russian
Default : Нет
Forced : Нет
Текст #4
Идентификатор : 8
Формат : UTF-8
Идентификатор кодека : S_TEXT/UTF8
Идентификатор кодека/Информация : UTF-8 Plain Text
Заголовок : Full
Язык : English
Default : Нет
Forced : Нет
Текст #5
Идентификатор : 9
Формат : UTF-8
Идентификатор кодека : S_TEXT/UTF8
Идентификатор кодека/Информация : UTF-8 Plain Text
Заголовок : SDH
Язык : English
Default : Нет
Forced : Нет
Меню
00:00:00.000 : en:
00:06:26.427 : en:
00:09:26.857 : en:
00:15:03.193 : en:
00:21:33.500 : en:
00:26:52.235 : en:
00:32:34.744 : en:
00:36:51.167 : en:
00:42:17.952 : en:
00:47:27.261 : en:
00:54:37.816 : en:
00:59:26.229 : en:
01:06:18.974 : en:
01:10:21.508 : en:
01:17:45.118 : en:
01:23:17.492 : en:
01:28:06.864 : en:
01:33:28.811 : en:
01:42:20.759 : en:
01:44:26.426 : en:

Скриншоты

Автор релиза:
[Профиль] [ЛС]
Показать сообщения:    

Текущее время: Сегодня 16:20

Часовой пояс: GMT



Вы не можете начинать темы
Вы не можете отвечать на сообщения
Вы не можете редактировать свои сообщения
Вы не можете удалять свои сообщения
Вы не можете голосовать в опросах
Вы не можете прикреплять файлы к сообщениям
Вы не можете скачивать файлы