(Alternative Metal / Hard Rock) Godsmack - 1000hp (Best Buy Edition) - 2014, FLAC (tracks), lossless

 
Автор Сообщение

sergej644 ®

Пол:

Стаж: 4 года 11 месяцев

Сообщений: 6037

Откуда: Soviet Union



Награды: Нет

Торрент-статистика

Создавать темы 11-Авг-2014 21:56

[Цитировать]

--Godsmack - 1000hp (Best Buy Edition)

Страна: USA
Страна производитель диска: USA
Жанр: Alternative Metal / Hard Rock
Год выпуска: 2014
Формат: FLAC
Тип рипа: (tracks+.cue}
Битрейт аудио: lossless
Продолжительность: 00:49:33
- -

треклист

01. 1000hp (03:46)
02. FML (03:38)
03. Something Different (04:42)
04. What's Next? (04:20)
05. Generation Day (06:11)
06. Locked & Loaded (04:12)
07. Living in the Gray (04:07)
08. I Don't Belong (03:33)
09. Nothing Comes Easy (05:38)
10. Turning to Stone (05:16)
11. Life Is Good! (Bonus Track) (04:04)
-

лог создания рипа

Exact Audio Copy V1.0 beta 3 from 29. August 2011
EAC extraction logfile from 5. August 2014, 11:38
Godsmack / 1000hp (Best Buy Edition)
Used drive  : ASUS    DRW-24F1ST   a   Adapter: 0  ID: 0
Read mode               : Secure
Utilize accurate stream : Yes
Defeat audio cache      : Yes
Make use of C2 pointers : No
Read offset correction                      : 6
Overread into Lead-In and Lead-Out          : No
Fill up missing offset samples with silence : Yes
Delete leading and trailing silent blocks   : No
Null samples used in CRC calculations       : Yes
Used interface                              : Native Win32 interface for Win NT & 2000
Gap handling                                : Appended to previous track
Used output format              : User Defined Encoder
Selected bitrate                : 1024 kBit/s
Quality                         : High
Add ID3 tag                     : No
Command line compressor         : C:\Program Files (x86)\Exact Audio Copy\Flac\flac.exe
Additional command line options : -8 -V -T "Artist=%artist%" -T "Title=%title%" -T "Album=%albumtitle%" -T "Date=%year%" -T "Tracknumber=%tracknr%" -T "Genre=%genre%" -T "Comment=%comment%" %hascover%--picture="%coverfile%"%hascover% %source%
TOC of the extracted CD
     Track |   Start  |  Length  | Start sector | End sector
    ---------------------------------------------------------
        1  |  0:00.00 |  3:46.35 |         0    |    16984
        2  |  3:46.35 |  3:38.41 |     16985    |    33375
        3  |  7:25.01 |  4:42.15 |     33376    |    54540
        4  | 12:07.16 |  4:20.57 |     54541    |    74097
        5  | 16:27.73 |  6:11.61 |     74098    |   101983
        6  | 22:39.59 |  4:12.52 |    101984    |   120935
        7  | 26:52.36 |  4:07.29 |    120936    |   139489
        8  | 30:59.65 |  3:33.70 |    139490    |   155534
        9  | 34:33.60 |  5:38.69 |    155535    |   180953
       10  | 40:12.54 |  5:16.11 |    180954    |   204664
       11  | 45:28.65 |  4:04.72 |    204665    |   223036
Track  1
     Filename C:\Godsmack - 1000hp (Best Buy Edition) (2014) [FLAC]\01. 1000hp.wav
     Pre-gap length  0:00:02.00
     Peak level 100.0 %
     Extraction speed 4.8 X
     Track quality 100.0 %
     Test CRC E41FF93F
     Copy CRC E41FF93F
     Track not present in AccurateRip database
     Copy OK
Track  2
     Filename C:\Godsmack - 1000hp (Best Buy Edition) (2014) [FLAC]\02. FML.wav
     Peak level 99.7 %
     Extraction speed 5.2 X
     Track quality 100.0 %
     Test CRC 9700A77A
     Copy CRC 9700A77A
     Track not present in AccurateRip database
     Copy OK
Track  3
     Filename C:\Godsmack - 1000hp (Best Buy Edition) (2014) [FLAC]\03. Something Different.wav
     Peak level 100.0 %
     Extraction speed 4.8 X
     Track quality 99.9 %
     Test CRC 2D2245A7
     Copy CRC 2D2245A7
     Track not present in AccurateRip database
     Copy OK
Track  4
     Filename C:\Godsmack - 1000hp (Best Buy Edition) (2014) [FLAC]\04. What's Next.wav
     Peak level 100.0 %
     Extraction speed 6.1 X
     Track quality 100.0 %
     Test CRC 9847E4A8
     Copy CRC 9847E4A8
     Track not present in AccurateRip database
     Copy OK
Track  5
     Filename C:\Godsmack - 1000hp (Best Buy Edition) (2014) [FLAC]\05. Generation Day.wav
     Peak level 100.0 %
     Extraction speed 5.9 X
     Track quality 99.9 %
     Test CRC B1E83F50
     Copy CRC B1E83F50
     Track not present in AccurateRip database
     Copy OK
Track  6
     Filename C:\Godsmack - 1000hp (Best Buy Edition) (2014) [FLAC]\06. Locked & Loaded.wav
     Peak level 100.0 %
     Extraction speed 7.0 X
     Track quality 100.0 %
     Test CRC 3A5A861B
     Copy CRC 3A5A861B
     Track not present in AccurateRip database
     Copy OK
Track  7
     Filename C:\Godsmack - 1000hp (Best Buy Edition) (2014) [FLAC]\07. Living in the Gray.wav
     Peak level 98.7 %
     Extraction speed 7.2 X
     Track quality 100.0 %
     Test CRC A67E72A4
     Copy CRC A67E72A4
     Track not present in AccurateRip database
     Copy OK
Track  8
     Filename C:\Godsmack - 1000hp (Best Buy Edition) (2014) [FLAC]\08. I Don't Belong.wav
     Peak level 99.3 %
     Extraction speed 7.3 X
     Track quality 100.0 %
     Test CRC C94E61EF
     Copy CRC C94E61EF
     Track not present in AccurateRip database
     Copy OK
Track  9
     Filename C:\Godsmack - 1000hp (Best Buy Edition) (2014) [FLAC]\09. Nothing Comes Easy.wav
     Peak level 100.0 %
     Extraction speed 8.1 X
     Track quality 100.0 %
     Test CRC 6EA56119
     Copy CRC 6EA56119
     Track not present in AccurateRip database
     Copy OK
Track 10
     Filename C:\Godsmack - 1000hp (Best Buy Edition) (2014) [FLAC]\10. Turning to Stone.wav
     Peak level 99.5 %
     Extraction speed 8.3 X
     Track quality 100.0 %
     Test CRC B262518C
     Copy CRC B262518C
     Track not present in AccurateRip database
     Copy OK
Track 11
     Filename C:\Godsmack - 1000hp (Best Buy Edition) (2014) [FLAC]\11. Life Is Good! (Bonus Track).wav
     Peak level 99.4 %
     Extraction speed 8.3 X
     Track quality 100.0 %
     Test CRC DF3B4C6B
     Copy CRC DF3B4C6B
     Track not present in AccurateRip database
     Copy OK
None of the tracks are present in the AccurateRip database
No errors occurred
End of status report
---- CUETools DB Plugin V2.1.4

содержание индексной карты *cue

REM GENRE "Alt. Metal"
REM DATE 2014
REM DISCID 950B9D0B
REM COMMENT "ExactAudioCopy v1.0b3"
CATALOG 0602537929955
PERFORMER "Godsmack"
TITLE "1000hp (Best Buy Edition)"
FILE "01. 1000hp.wav" WAVE
  TRACK 01 AUDIO
    TITLE "1000hp"
    PERFORMER "Godsmack"
    ISRC USUM71406901
    INDEX 01 00:00:00
FILE "02. FML.wav" WAVE
  TRACK 02 AUDIO
    TITLE "FML"
    PERFORMER "Godsmack"
    ISRC USUM71409601
    INDEX 01 00:00:00
FILE "03. Something Different.wav" WAVE
  TRACK 03 AUDIO
    TITLE "Something Different"
    PERFORMER "Godsmack"
    ISRC USUM71409602
    INDEX 01 00:00:00
FILE "04. What's Next.wav" WAVE
  TRACK 04 AUDIO
    TITLE "What's Next?"
    PERFORMER "Godsmack"
    ISRC USUM71409603
    INDEX 01 00:00:00
FILE "05. Generation Day.wav" WAVE
  TRACK 05 AUDIO
    TITLE "Generation Day"
    PERFORMER "Godsmack"
    ISRC USUM71409604
    INDEX 01 00:00:00
FILE "06. Locked & Loaded.wav" WAVE
  TRACK 06 AUDIO
    TITLE "Locked & Loaded"
    PERFORMER "Godsmack"
    ISRC USUM71409605
    INDEX 01 00:00:00
FILE "07. Living in the Gray.wav" WAVE
  TRACK 07 AUDIO
    TITLE "Living in the Gray"
    PERFORMER "Godsmack"
    ISRC USUM71409606
    INDEX 01 00:00:00
FILE "08. I Don't Belong.wav" WAVE
  TRACK 08 AUDIO
    TITLE "I Don't Belong"
    PERFORMER "Godsmack"
    ISRC USUM71409607
    INDEX 01 00:00:00
FILE "09. Nothing Comes Easy.wav" WAVE
  TRACK 09 AUDIO
    TITLE "Nothing Comes Easy"
    PERFORMER "Godsmack"
    ISRC USUM71409607
    INDEX 01 00:00:00
FILE "10. Turning to Stone.wav" WAVE
  TRACK 10 AUDIO
    TITLE "Turning to Stone"
    PERFORMER "Godsmack"
    ISRC USUM71409610
    INDEX 01 00:00:00
FILE "11. Life Is Good! (Bonus Track).wav" WAVE
  TRACK 11 AUDIO
    TITLE "Life Is Good! (Bonus Track)"
    PERFORMER "Godsmack"
    ISRC USUM71409609
    INDEX 01 00:00:00
[Профиль] [ЛС]
Показать сообщения:    

Текущее время: Сегодня 15:59

Часовой пояс: GMT



Вы не можете начинать темы
Вы не можете отвечать на сообщения
Вы не можете редактировать свои сообщения
Вы не можете удалять свои сообщения
Вы не можете голосовать в опросах
Вы не можете прикреплять файлы к сообщениям
Вы не можете скачивать файлы