Allen - Lande - The Great Divide (2014) Japanese Edition [FLAC|Lossless]<Melodic Heavy Metal>

 
Автор Сообщение

sergej644 ®

Пол:

Стаж: 4 года 11 месяцев

Сообщений: 6045

Откуда: Soviet Union



Награды: Нет

Торрент-статистика

Создавать темы 18-Окт-2014 19:27

[Цитировать]

-Allen - Lande - The Great Divide (Japanese Edition) (2014)- Год: 2014
Жанр: Melodic Heavy Metal
Продолжительность: 00:54:52
Лейбл: King Records
№ по каталогу: KICP-1710
Страна: International
Кодек: Flac
Тип рипа: image+.cue
Битрейт: Lossless
Источник: GriffonNest
-Треклист:

01. Come Dream With Me (4:34)
02. Down From The Mountain (4:07)
03. In The Hands Of Time (4:28)
04. Solid Ground (5:12)
05. Lady Of Winter (4:55)
06. Dream About Tomorrow (5:12)
07. Hymn To The Fallen (5:32)
08. The Great Divide (6:27)
09. Reaching For The Stars (5:25)
10. Bittersweet (4:31)
11. Bittersweet (Acoustic Version) (Only Japan Bonus) (4:29)
- -

Отчёт ЕАС&#58;

Exact Audio Copy V1.0 beta 2 from 29. April 2011
EAC extraction logfile from 17. October 2014, 21:26
Allen - Lande / The Great Divide
Used drive  : HL-DT-STDVDRAM GH24LS70   Adapter: 2  ID: 1
Read mode               : Secure
Utilize accurate stream : Yes
Defeat audio cache      : Yes
Make use of C2 pointers : No
Read offset correction                      : 667
Overread into Lead-In and Lead-Out          : No
Fill up missing offset samples with silence : Yes
Delete leading and trailing silent blocks   : No
Null samples used in CRC calculations       : Yes
Used interface                              : Native Win32 interface for Win NT & 2000
Used output format              : User Defined Encoder
Selected bitrate                : 896 kBit/s
Quality                         : High
Add ID3 tag                     : No
Command line compressor         : C:\Program Files\Exact Audio Copy\FLAC\FLAC.EXE
Additional command line options :  -V -8 -T "Date=%year%" -T "Genre=%genre%" %source%
TOC of the extracted CD
     Track |   Start  |  Length  | Start sector | End sector
    ---------------------------------------------------------
        1  |  0:00.00 |  4:34.31 |         0    |    20580
        2  |  4:34.31 |  4:07.53 |     20581    |    39158
        3  |  8:42.09 |  4:28.46 |     39159    |    59304
        4  | 13:10.55 |  5:12.18 |     59305    |    82722
        5  | 18:22.73 |  4:55.07 |     82723    |   104854
        6  | 23:18.05 |  5:12.48 |    104855    |   128302
        7  | 28:30.53 |  5:32.38 |    128303    |   153240
        8  | 34:03.16 |  6:27.58 |    153241    |   182323
        9  | 40:30.74 |  5:25.48 |    182324    |   206746
       10  | 45:56.47 |  4:31.07 |    206747    |   227078
       11  | 50:27.54 |  4:29.63 |    227079    |   247316
Range status and errors
Selected range
     Filename E:\Allen - Lande - The Great Divide (2014)\Allen - Lande.wav
     Peak level 99.9 %
     Extraction speed 1.7 X
     Range quality 100.0 %
     Copy CRC 1B7F38C9
     Copy OK
No errors occurred
AccurateRip summary
Track  1  not present in database
Track  2  not present in database
Track  3  not present in database
Track  4  not present in database
Track  5  not present in database
Track  6  not present in database
Track  7  not present in database
Track  8  not present in database
Track  9  not present in database
Track 10  not present in database
Track 11  not present in database
None of the tracks are present in the AccurateRip database
End of status report
==== Log checksum D7566E7444285B6DA91D2147624ED4E91EB8E598696BB3554B78297733E59745 ====

Отчёт auCDtect Task manager&#58;

-----------------------
DON'T MODIFY THIS FILE
-----------------------
PERFORMER: auCDtect Task Manager, ver. 1.6.0 RC1 build 1.6.0.1
Copyright (c) 2008-2010 y-soft. All rights reserved
http://y-soft.org
ANALYZER: auCDtect: CD records authenticity detector, version 0.8.2
Copyright (c) 2004 Oleg Berngardt. All rights reserved.
Copyright (c) 2004 Alexander Djourik. All rights reserved.
FILE: Allen - Lande.flac
  Size: 427452855 Hash: 8F1485AD8B95E866C7E1C80959D04285 Accuracy: -m0
  Conclusion: CDDA 100%
  Signature: 70782D9E305BD676AC2350613D7EEC0C647FE059
Время раздачи: c 20:00 до 22:00-
[Профиль] [ЛС]
Кто просматривает тему:

Форум Тема Автор Размер
Metal (Melodic Heavy Metal) Allen - Lande - The Great Divide - 2014, MP3, tracks, 320 kbps sergej644 132 MB
Показать сообщения:    

Текущее время: Сегодня 06:08

Часовой пояс: GMT



Вы не можете начинать темы
Вы не можете отвечать на сообщения
Вы не можете редактировать свои сообщения
Вы не можете удалять свои сообщения
Вы не можете голосовать в опросах
Вы не можете прикреплять файлы к сообщениям
Вы не можете скачивать файлы