Alizee - En concert (2004) DVDRip-AVC

 
Автор Сообщение

sergej644 ®

Пол:

Стаж: 4 года 11 месяцев

Сообщений: 6036

Откуда: Soviet Union



Награды: Нет

Торрент-статистика

Создавать темы 31-Окт-2014 11:54

[Цитировать]

--Alizee - En concert (2004)
Информация о фильме
Название: Alizée en concert
Год выхода: 2004
Выпущено: Requiem Publishing
Страна: Франция
Жанр: Концерт, музыка
Продолжительность: 01:33:12
Перевод: Не требуется
Режиссер: Пьер Стайн
Исполнитель: Ализе
-Описание
Песни Ализе сочетают в себе отличные вокальные данные певицы и красивые мелодии в стиле французской поп-музыки. Ализе исполняет как медленные и душевные композиции, так и ритмичные, танцевальные песни.
17 января 2004 года Ализе дала свой заключительный концерт в концертном зале Парижа «Le Zenith», устроив публике красочное шоу и исполнив свои семнадцать песен из двух альбомов.
После заключительного концерта, начиная с февраля 2004 года, Ализе взяла творческий перерыв на неопределённый срок.
7 июля 2006 года проходившее на французском телеканале «Europe 2» шоу под названием «Le JT de la musique» объявило, что Ализе «больше не сотрудничает с её бывшем продюсером и автором слов её песен Милен Фармер»...

Треклист

01. Intralizee
02. L'Alizee
03. Hey! Amigo!
04. Toc de mac
05. J'en ai marrie!
06. Lui ou toi
07. Gourmandises
08. L'E-mail a des ailes
09. Mon maquis
10. J.B.G.
11. Moi... Lolita
12. Amelie m'a dit
13. Parler tout bas
14. C'est trop tard
15. Youpidou
16. Tempete
17. A countre-courant
18. J'ai pas vingt ans
-Файл
Кодек: x264
Формат: MKV
Качество: DVDRip 576p (Источник: DVD-9)
Видео: MPEG-4 AVC (16:9) 1024x576 pix, 25.000 fps, 5190 kbps
Аудио I: AAC (2.0) 16 bit, 48 kHz, 320 kbps
Аудио II: Dolby Digital (5.1) 16 bit, 48 kHz, 448 kbps
Аудио III: DTS (5.1) 16 bit, 48 kHz, 755 kbps
Меню: Сохранены оригинальные чаптеры DVD

MI & x264

General
Unique ID : 196815839309130751554148176645333098721 (0x94115A128C3909CAB95BC81D94DEA0E1)
Complete name : D:AlexЗагрузкиAlizee.En.Concert.2004.DVDRip.576p.mkv
Format : Matroska
Format version : Version 2
File size : 4.37 GiB
Duration : 1h 33mn
Overall bit rate : 6 716 Kbps
Movie name : Alizee - En concert (2004) DVDRip (576p)
Encoded date : UTC 2014-09-21 10:06:41
Writing application : mkvmerge v5.8.0 ('No Sleep / Pillow') built on Sep 2 2012 15:37:04
Writing library : libebml v1.2.3 + libmatroska v1.3.0
Video
ID : 1
Format : AVC
Format/Info : Advanced Video Codec
Format profile : High@L4.1
Format settings, CABAC : Yes
Format settings, ReFrames : 9 frames
Codec ID : V_MPEG4/ISO/AVC
Nominal bit rate : 5 190 Kbps
Width : 1 024 pixels
Height : 576 pixels
Display aspect ratio : 16:9
Frame rate mode : Variable
Original frame rate : 25.000 fps
Color space : YUV
Chroma subsampling : 4:2:0
Bit depth : 8 bits
Scan type : Progressive
Bits/(Pixel*Frame) : 0.352
Title : Release by Alex260680
Writing library : x264 core 142 r2479 dd79a61
Encoding settings : cabac=1 / ref=9 / deblock=1:-3:-3 / analyse=0x3:0x133 / me=umh / subme=11 / psy=1 / psy_rd=1.00:0.05 / mixed_ref=1 / me_range=32 / chroma_me=1 / trellis=2 / 8x8dct=1 / cqm=0 / deadzone=21,11 / fast_pskip=0 / chroma_qp_offset=-3 / threads=6 / lookahead_threads=1 / sliced_threads=0 / nr=0 / decimate=0 / interlaced=0 / bluray_compat=0 / constrained_intra=0 / bframes=7 / b_pyramid=2 / b_adapt=2 / b_bias=0 / direct=3 / weightb=1 / open_gop=0 / weightp=2 / keyint=250 / keyint_min=25 / scenecut=40 / intra_refresh=0 / rc=2pass / mbtree=0 / bitrate=5190 / ratetol=1.0 / qcomp=0.60 / qpmin=0 / qpmax=69 / qpstep=4 / cplxblur=20.0 / qblur=0.5 / ip_ratio=1.40 / pb_ratio=1.30 / aq=1:0.70
Language : French
Default : Yes
Forced : No
Audio #1
ID : 2
Format : AAC
Format/Info : Advanced Audio Codec
Format profile : LC
Codec ID : A_AAC
Duration : 1h 33mn
Channel(s) : 2 channels
Channel positions : Front: L R
Sampling rate : 48.0 KHz
Compression mode : Lossy
Delay relative to video : 9ms
Title : AAC 2.0
Language : French
Default : Yes
Forced : No
Audio #2
ID : 3
Format : AC-3
Format/Info : Audio Coding 3
Mode extension : CM (complete main)
Format settings, Endianness : Big
Codec ID : A_AC3
Duration : 1h 33mn
Bit rate mode : Constant
Bit rate : 448 Kbps
Channel(s) : 6 channels
Channel positions : Front: L C R, Side: L R, LFE
Sampling rate : 48.0 KHz
Bit depth : 16 bits
Compression mode : Lossy
Stream size : 299 MiB (7%)
Title : Dolby Digital 5.1
Language : French
Default : No
Forced : No
Audio #3
ID : 4
Format : DTS
Format/Info : Digital Theater Systems
Mode : 16
Format settings, Endianness : Big
Codec ID : A_DTS
Duration : 1h 33mn
Bit rate mode : Constant
Bit rate : 755 Kbps
Channel(s) : 6 channels
Channel positions : Front: L C R, Side: L R, LFE
Sampling rate : 48.0 KHz
Bit depth : 16 bits
Compression mode : Lossy
Stream size : 503 MiB (11%)
Title : DTS 5.1
Language : French
Default : No
Forced : No
Menu
00:00:00.000 : en:Intralizee
00:02:02.920 : en:L'Alizee
00:06:40.520 : en:Hey! Amigo!
00:10:45.800 : en:Toc de mac
00:15:17.160 : en:J'en ai marrie!
00:21:27.400 : en:Lui ou toi
00:25:49.520 : en:Gourmandises
00:30:54.640 : en:L'E-mail a des ailes
00:34:57.880 : en:Mon maquis
00:40:39.000 : en:J.B.G.
00:44:45.480 : en:Moi... Lolita
00:53:06.080 : en:Amelie m'a dit
00:57:00.600 : en:Parler tout bas
01:02:24.520 : en:C'est trop tard
01:07:58.040 : en:Youpidou
01:12:16.400 : en:Tempete
01:16:57.480 : en:A countre-courant
01:24:25.000 : en:J'ai pas vingt ans
01:28:55.240 : en:End Credits-x264 [info]: frame I:949 Avg QP:16.34 size: 71083
x264 [info]: frame P:36944 Avg QP:18.92 size: 41604
x264 [info]: frame B:101929 Avg QP:21.13 size: 19855
x264 [info]: consecutive B-frames: 5.3% 5.6% 11.9% 21.4% 17.3% 32.0% 5.9% 0.6%
-- --
[Профиль] [ЛС]
Кто просматривает тему:

Показать сообщения:    

Текущее время: Сегодня 13:59

Часовой пояс: GMT



Вы не можете начинать темы
Вы не можете отвечать на сообщения
Вы не можете редактировать свои сообщения
Вы не можете удалять свои сообщения
Вы не можете голосовать в опросах
Вы не можете прикреплять файлы к сообщениям
Вы не можете скачивать файлы