Aerosmith - Rock For The Rising Sun [2013, Rock, Blu-ray]

 
Автор Сообщение

sergej644 ®

Пол:

Стаж: 4 года 11 месяцев

Сообщений: 6042

Откуда: Soviet Union



Награды: Нет

Торрент-статистика

Создавать темы 30-Май-2015 20:10

[Цитировать]

--Aerosmith - Rock For The Rising Sun

Жанр: Rock
Продолжительность: 01:34:32 min
Год выпуска: 2013-
После землетресения в 2011году на Фукусиме, Япония. Рок - группа Aerosmith дала ряд концертов в Японии в 2011году, об этом туре Eagle Rock Entertainment выпустил в 2013году фильм - концерт Aerosmith - Rock For The Rising Sun. Выложено для ознакомления! Всем приятного просмотра!

Треклист

1.Draw The Line
2.Love In An Elevator
3.Livin' On The Edge
4.Hangman Jury
5.No More No More
6.Mama Kin
7.Monkey On My Back
8.Toys In The Attic
9.Listen To The Thunder
10.Sweet Emotion
11.Boogie Man
12.Rats In The Cellar
13.Movin' Out
14.Last Child
15.S.O.S. (Too Bad)
16.Walk This Way
17.Train Kept A Rollin'
Bonus Tracks:
18.Lick And A Promise
19.One Way Street
-Качество: Blu-ray
Контейнер: BDMV
Видео кодек: MPEG-4 AVC
Аудио кодек: DTS
Видео: MPEG-4 AVC Video , 1080i , 29,970 fps , (16:9), 33.0 Mbps
Аудио: LPCM 2.0 1536Kbps
Аудио 2: DTS, 5.1 / 48 kHz / 1509 kbps

Отчёт MediaInfo / BDInfo

Disc Title: Aerosmith - Rock For The Rising Sun (2013)Disc Size: 29 793 821 457 bytesProtection: AACSBD-Java: NoBDInfo: 0.5.8
Notes:
BDINFO HOME: Cinema Squid http://www.cinemasquid.com/blu-ray/tools/bdinfo
INCLUDES FORUMS REPORT FOR: AVS Forum Blu-ray Audio and Video Specifications Thread http://www.avsforum.com/avs-vb/showthread.php?t=1155731
WARNING: Report is incomplete because: Scan has not been run.
********************PLAYLIST: 00005.MPLS********************
Total   Video
Title                                                           Codec   Length  Movie Size      Disc Size       Bitrate Bitrate Main Audio Track                          Secondary Audio Track
-----                                                           ------  ------- --------------  --------------  ------- ------- ------------------                        ---------------------
00005.MPLS                                                      AVC     1:34:32 0               29 793 821 457  0,00    0,00    LPCM 2.0 1536Kbps (48kHz/16-bit)          DTS-HD Master 5.1 (48kHz/16-bit)
DISC INFO:
Disc Title:     Aerosmith - Rock For The Rising Sun (2013)
Disc Size:      29 793 821 457 bytes
Protection:     AACS
BD-Java:        No
BDInfo:         0.5.8
PLAYLIST REPORT:
Name:                   00005.MPLS
Length:                 1:34:32.033 (h:m:s.ms)
Size:                   0 bytes
Total Bitrate:          0,00 Mbps
VIDEO:
Codec                   Bitrate             Description
-----                   -------             -----------
MPEG-4 AVC Video        0 kbps              1080i / 29,970 fps / 16:9 / High Profile 4.1
AUDIO:
Codec                           Language        Bitrate         Description
-----                           --------        -------         -----------
LPCM Audio                      English         1536 kbps       2.0 / 48 kHz / 1536 kbps / 16-bit
DTS-HD Master Audio             English         0 kbps          5.1 / 48 kHz / 16-bit (DTS Core: 5.1 / 48 kHz / 1509 kbps / 16-bit)
SUBTITLES:
Codec                           Language        Bitrate         Description
-----                           --------        -------         -----------
Presentation Graphics           English         0,000 kbps
Presentation Graphics           German          0,000 kbps
Presentation Graphics           Spanish         0,000 kbps
Presentation Graphics           French          0,000 kbps
Presentation Graphics           Italian         0,000 kbps
Presentation Graphics           Dutch           0,000 kbps
Presentation Graphics           Portuguese      0,000 kbps
FILES:
Name            Time In         Length          Size            Total Bitrate
----            -------         ------          ----            -------------
00008.M2TS      0:00:00.000     1:34:32.033     0               0
CHAPTERS:
Number          Time In         Length          Avg Video Rate  Max 1-Sec Rate  Max 1-Sec Time  Max 5-Sec Rate  Max 5-Sec Time  Max 10Sec Rate  Max 10Sec Time  Avg Frame Size  Max Frame Size  Max Frame Time
------          -------         ------          --------------  --------------  --------------  --------------  --------------  --------------  --------------  --------------  --------------  --------------
1               0:00:00.000     0:01:10.336     0 kbps          0 kbps          00:00:00.000    0 kbps          00:00:00.000    0 kbps          00:00:00.000    0 bytes         0 bytes         00:00:00.000
2               0:01:10.336     0:04:47.153     0 kbps          0 kbps          00:00:00.000    0 kbps          00:00:00.000    0 kbps          00:00:00.000    0 bytes         0 bytes         00:00:00.000
3               0:05:57.490     0:07:34.954     0 kbps          0 kbps          00:00:00.000    0 kbps          00:00:00.000    0 kbps          00:00:00.000    0 bytes         0 bytes         00:00:00.000
4               0:13:32.444     0:05:37.870     0 kbps          0 kbps          00:00:00.000    0 kbps          00:00:00.000    0 kbps          00:00:00.000    0 bytes         0 bytes         00:00:00.000
5               0:19:10.315     0:03:05.251     0 kbps          0 kbps          00:00:00.000    0 kbps          00:00:00.000    0 kbps          00:00:00.000    0 bytes         0 bytes         00:00:00.000
6               0:22:15.567     0:06:27.053     0 kbps          0 kbps          00:00:00.000    0 kbps          00:00:00.000    0 kbps          00:00:00.000    0 bytes         0 bytes         00:00:00.000
7               0:28:42.620     0:07:06.993     0 kbps          0 kbps          00:00:00.000    0 kbps          00:00:00.000    0 kbps          00:00:00.000    0 bytes         0 bytes         00:00:00.000
8               0:35:49.614     0:04:10.483     0 kbps          0 kbps          00:00:00.000    0 kbps          00:00:00.000    0 kbps          00:00:00.000    0 bytes         0 bytes         00:00:00.000
9               0:40:00.097     0:03:56.269     0 kbps          0 kbps          00:00:00.000    0 kbps          00:00:00.000    0 kbps          00:00:00.000    0 bytes         0 bytes         00:00:00.000
10              0:43:56.367     0:05:02.435     0 kbps          0 kbps          00:00:00.000    0 kbps          00:00:00.000    0 kbps          00:00:00.000    0 bytes         0 bytes         00:00:00.000
11              0:48:58.802     0:10:09.675     0 kbps          0 kbps          00:00:00.000    0 kbps          00:00:00.000    0 kbps          00:00:00.000    0 bytes         0 bytes         00:00:00.000
12              0:59:08.478     0:02:32.418     0 kbps          0 kbps          00:00:00.000    0 kbps          00:00:00.000    0 kbps          00:00:00.000    0 bytes         0 bytes         00:00:00.000
13              1:01:40.897     0:05:38.071     0 kbps          0 kbps          00:00:00.000    0 kbps          00:00:00.000    0 kbps          00:00:00.000    0 bytes         0 bytes         00:00:00.000
14              1:07:18.968     0:06:08.301     0 kbps          0 kbps          00:00:00.000    0 kbps          00:00:00.000    0 kbps          00:00:00.000    0 bytes         0 bytes         00:00:00.000
15              1:13:27.269     0:09:29.669     0 kbps          0 kbps          00:00:00.000    0 kbps          00:00:00.000    0 kbps          00:00:00.000    0 bytes         0 bytes         00:00:00.000
16              1:22:56.938     0:03:35.081     0 kbps          0 kbps          00:00:00.000    0 kbps          00:00:00.000    0 kbps          00:00:00.000    0 bytes         0 bytes         00:00:00.000
17              1:26:32.020     0:06:28.020     0 kbps          0 kbps          00:00:00.000    0 kbps          00:00:00.000    0 kbps          00:00:00.000    0 bytes         0 bytes         00:00:00.000
18              1:33:00.041     0:01:31.991     0 kbps          0 kbps          00:00:00.000    0 kbps          00:00:00.000    0 kbps          00:00:00.000    0 bytes         0 bytes         00:00:00.000
STREAM DIAGNOSTICS:
File            PID             Type            Codec           Language                Seconds                 Bitrate                 Bytes           Packets
----            ---             ----            -----           --------                --------------          --------------          -------------   -----
00008.M2TS      4113 (0x1011)   0x1B            AVC                                     0                       0                       0               0
00008.M2TS      4352 (0x1100)   0x80            LPCM            eng (English)           0                       0                       0               0
00008.M2TS      4353 (0x1101)   0x86            DTS-HD MA       eng (English)           0                       0                       0               0
00008.M2TS      4608 (0x1200)   0x90            PGS             eng (English)           0                       0                       0               0
00008.M2TS      4609 (0x1201)   0x90            PGS             deu (German)            0                       0                       0               0
00008.M2TS      4610 (0x1202)   0x90            PGS             spa (Spanish)           0                       0                       0               0
00008.M2TS      4611 (0x1203)   0x90            PGS             fra (French)            0                       0                       0               0
00008.M2TS      4612 (0x1204)   0x90            PGS             ita (Italian)           0                       0                       0               0
00008.M2TS      4613 (0x1205)   0x90            PGS             nld (Dutch)             0                       0                       0               0
00008.M2TS      4614 (0x1206)   0x90            PGS             por (Portuguese)        0                       0                       0               0
QUICK SUMMARY:
Disc Title: Aerosmith - Rock For The Rising Sun (2013)Disc Size: 29 793 821 457 bytesProtection: AACSBD-Java: NoPlaylist: 00005.MPLSSize: 0 bytesLength: 1:34:32.033Total Bitrate: 0,00 MbpsVideo: MPEG-4 AVC Video / 0 kbps / 1080i / 29,970 fps / 16:9 / High Profile 4.1Audio: English / LPCM Audio / 2.0 / 48 kHz / 1536 kbps / 16-bitAudio: English / DTS-HD Master Audio / 5.1 / 48 kHz / 16-bit (DTS Core: 5.1 / 48 kHz / 1509 kbps / 16-bit)Subtitle: English / 0,000 kbpsSubtitle: German / 0,000 kbpsSubtitle: Spanish / 0,000 kbpsSubtitle: French / 0,000 kbpsSubtitle: Italian / 0,000 kbpsSubtitle: Dutch / 0,000 kbpsSubtitle: Portuguese / 0,000 kbps
********************PLAYLIST: 00007.MPLS********************
Total   Video
Title                                                           Codec   Length  Movie Size      Disc Size       Bitrate Bitrate Main Audio Track                          Secondary Audio Track
-----                                                           ------  ------- --------------  --------------  ------- ------- ------------------                        ---------------------
00007.MPLS                                                      AVC     0:06:47 0               29 793 821 457  0,00    0,00    LPCM 2.0 1536Kbps (48kHz/16-bit)          DTS-HD Master 5.1 (48kHz/16-bit)
DISC INFO:
Disc Title:     Aerosmith - Rock For The Rising Sun (2013)
Disc Size:      29 793 821 457 bytes
Protection:     AACS
BD-Java:        No
BDInfo:         0.5.8
PLAYLIST REPORT:
Name:                   00007.MPLS
Length:                 0:06:47.407 (h:m:s.ms)
Size:                   0 bytes
Total Bitrate:          0,00 Mbps
VIDEO:
Codec                   Bitrate             Description
-----                   -------             -----------
MPEG-4 AVC Video        0 kbps              1080i / 29,970 fps / 16:9 / High Profile 4.1
AUDIO:
Codec                           Language        Bitrate         Description
-----                           --------        -------         -----------
LPCM Audio                      English         1536 kbps       2.0 / 48 kHz / 1536 kbps / 16-bit
DTS-HD Master Audio             English         0 kbps          5.1 / 48 kHz / 16-bit (DTS Core: 5.1 / 48 kHz / 1509 kbps / 16-bit)
FILES:
Name            Time In         Length          Size            Total Bitrate
----            -------         ------          ----            -------------
00010.M2TS      0:00:00.000     0:06:47.407     0               0
CHAPTERS:
Number          Time In         Length          Avg Video Rate  Max 1-Sec Rate  Max 1-Sec Time  Max 5-Sec Rate  Max 5-Sec Time  Max 10Sec Rate  Max 10Sec Time  Avg Frame Size  Max Frame Size  Max Frame Time
------          -------         ------          --------------  --------------  --------------  --------------  --------------  --------------  --------------  --------------  --------------  --------------
1               0:00:00.000     0:06:47.407     0 kbps          0 kbps          00:00:00.000    0 kbps          00:00:00.000    0 kbps          00:00:00.000    0 bytes         0 bytes         00:00:00.000
STREAM DIAGNOSTICS:
File            PID             Type            Codec           Language                Seconds                 Bitrate                 Bytes           Packets
----            ---             ----            -----           --------                --------------          --------------          -------------   -----
00010.M2TS      4113 (0x1011)   0x1B            AVC                                     0                       0                       0               0
00010.M2TS      4352 (0x1100)   0x80            LPCM            eng (English)           0                       0                       0               0
00010.M2TS      4353 (0x1101)   0x86            DTS-HD MA       eng (English)           0                       0                       0               0
QUICK SUMMARY:
Disc Title: Aerosmith - Rock For The Rising Sun (2013)Disc Size: 29 793 821 457 bytesProtection: AACSBD-Java: NoPlaylist: 00007.MPLSSize: 0 bytesLength: 0:06:47.407Total Bitrate: 0,00 MbpsVideo: MPEG-4 AVC Video / 0 kbps / 1080i / 29,970 fps / 16:9 / High Profile 4.1Audio: English / LPCM Audio / 2.0 / 48 kHz / 1536 kbps / 16-bitAudio: English / DTS-HD Master Audio / 5.1 / 48 kHz / 16-bit (DTS Core: 5.1 / 48 kHz / 1509 kbps / 16-bit)
********************PLAYLIST: 00006.MPLS********************
Total   Video
Title                                                           Codec   Length  Movie Size      Disc Size       Bitrate Bitrate Main Audio Track                          Secondary Audio Track
-----                                                           ------  ------- --------------  --------------  ------- ------- ------------------                        ---------------------
00006.MPLS                                                      AVC     0:03:32 0               29 793 821 457  0,00    0,00    LPCM 2.0 1536Kbps (48kHz/16-bit)          DTS-HD Master 5.1 (48kHz/16-bit)
DISC INFO:
Disc Title:     Aerosmith - Rock For The Rising Sun (2013)
Disc Size:      29 793 821 457 bytes
Protection:     AACS
BD-Java:        No
BDInfo:         0.5.8
PLAYLIST REPORT:
Name:                   00006.MPLS
Length:                 0:03:32.212 (h:m:s.ms)
Size:                   0 bytes
Total Bitrate:          0,00 Mbps
VIDEO:
Codec                   Bitrate             Description
-----                   -------             -----------
MPEG-4 AVC Video        0 kbps              1080i / 29,970 fps / 16:9 / High Profile 4.1
AUDIO:
Codec                           Language        Bitrate         Description
-----                           --------        -------         -----------
LPCM Audio                      English         1536 kbps       2.0 / 48 kHz / 1536 kbps / 16-bit
DTS-HD Master Audio             English         0 kbps          5.1 / 48 kHz / 16-bit (DTS Core: 5.1 / 48 kHz / 1509 kbps / 16-bit)
FILES:
Name            Time In         Length          Size            Total Bitrate
----            -------         ------          ----            -------------
00009.M2TS      0:00:00.000     0:03:32.212     0               0
CHAPTERS:
Number          Time In         Length          Avg Video Rate  Max 1-Sec Rate  Max 1-Sec Time  Max 5-Sec Rate  Max 5-Sec Time  Max 10Sec Rate  Max 10Sec Time  Avg Frame Size  Max Frame Size  Max Frame Time
------          -------         ------          --------------  --------------  --------------  --------------  --------------  --------------  --------------  --------------  --------------  --------------
1               0:00:00.000     0:03:32.212     0 kbps          0 kbps          00:00:00.000    0 kbps          00:00:00.000    0 kbps          00:00:00.000    0 bytes         0 bytes         00:00:00.000
STREAM DIAGNOSTICS:
File            PID             Type            Codec           Language                Seconds                 Bitrate                 Bytes           Packets
----            ---             ----            -----           --------                --------------          --------------          -------------   -----
00009.M2TS      4113 (0x1011)   0x1B            AVC                                     0                       0                       0               0
00009.M2TS      4352 (0x1100)   0x80            LPCM            eng (English)           0                       0                       0               0
00009.M2TS      4353 (0x1101)   0x86            DTS-HD MA       eng (English)           0                       0                       0               0
QUICK SUMMARY:
Disc Title: Aerosmith - Rock For The Rising Sun (2013)Disc Size: 29 793 821 457 bytesProtection: AACSBD-Java: NoPlaylist: 00006.MPLSSize: 0 bytesLength: 0:03:32.212Total Bitrate: 0,00 MbpsVideo: MPEG-4 AVC Video / 0 kbps / 1080i / 29,970 fps / 16:9 / High Profile 4.1Audio: English / LPCM Audio / 2.0 / 48 kHz / 1536 kbps / 16-bitAudio: English / DTS-HD Master Audio / 5.1 / 48 kHz / 16-bit (DTS Core: 5.1 / 48 kHz / 1509
-
[Профиль] [ЛС]
Кто просматривает тему:

Форум Тема Автор Размер
Другие симуляторы Guitar Hero: Aerosmith [L] [ENG / ENG] (2008) Richi Keeper 4.57 GB
Показать сообщения:    

Текущее время: Сегодня 18:15

Часовой пояс: GMT



Вы не можете начинать темы
Вы не можете отвечать на сообщения
Вы не можете редактировать свои сообщения
Вы не можете удалять свои сообщения
Вы не можете голосовать в опросах
Вы не можете прикреплять файлы к сообщениям
Вы не можете скачивать файлы