(Pop) Adriano Celentano - Il Forestiero - 2002 (1970), FLAC (image+.cue), lossless

 
Автор Сообщение

sergej644 ®

Пол:

Стаж: 4 года 11 месяцев

Сообщений: 6045

Откуда: Soviet Union



Награды: Нет

Торрент-статистика

Создавать темы 20-Дек-2014 16:28

[Цитировать]

Adriano Celentano - Il Forestiero
Жанр: Pop
Год издания альбома: 1970
Год выпуска диска: 2002
Производитель диска: Россия
Аудио кодек: FLAC
Тип рипа: image+.cue
Битрейт аудио: lossless
Продолжительность: 31:54
Трэклист:
01. Il Forestiero
02. Cosa Fai Questa Sera
03. Addormentarmi Cosi
04. Stivali E Colbacco
05. Brutta
06. Tu Scendi Dalle Stelle
07. Bianco Natale
08. Santo Natale
09. Natale '70
10. Jingle Bells

Отчёт EAC

Exact Audio Copy V0.99 prebeta 5 from 4. May 2009
Отчёт EAC об извлечении, выполненном 22. сентября 2009, 23:05
Adriano Celentano / Il Forestiero
Дисковод: PLEXTOR CD-R   PX-W4824A   Adapter: 0  ID: 0
Режим чтения                 : Достоверность
Использование точного потока : Да
Отключение кэша аудио        : Да
Использование указателей C2  : Нет
Коррекция смещения при чтении                     : 98
Способность читать области Lead-in и Lead-out     : Да
Заполнение пропущенных сэмплов тишиной            : Да
Удаление блоков с тишиной в начале и конце        : Нет
При вычислениях CRC использовались нулевые сэмплы : Да
Интерфейс                                         : Встроенный Win32-интерфейс для Win NT/2000
Выходной формат          : Пользовательский кодировщик
Выбранный битрейт        : 1024 kBit/s
Качество                 : Высокий
Добавление ID3-тэга      : Нет
Утилита сжатия           : C:\Program Files\Exact Audio Copy\Flac\flac.exe
Дополнительные параметры : -8 -V %s -o %d
TOC извлечённого CD
     Трек |   Старт  | Длительность | Начальный сектор | Конечный сектор
    ---------------------------------------------------------------------
       1  |  0:00.00 |    3:36.74   |           0      |      16273
       2  |  3:36.74 |    2:17.10   |       16274      |      26558
       3  |  5:54.09 |    2:58.17   |       26559      |      39925
       4  |  8:52.26 |    2:10.34   |       39926      |      49709
       5  | 11:02.60 |    4:55.26   |       49710      |      71860
       6  | 15:58.11 |    3:31.69   |       71861      |      87754
       7  | 19:30.05 |    2:59.51   |       87755      |     101230
       8  | 22:29.56 |    3:40.62   |      101231      |     117792
       9  | 26:10.43 |    3:15.60   |      117793      |     132477
      10  | 29:26.28 |    2:27.68   |      132478      |     143570
Характеристики диапазона извлечения и сообщения об ошибках
Выбранный диапазон
     Имя файла D:\Музыка\Adriano Celentano\1970 - Il Forestiero\Adriano Celentano - Il Forestiero.wav
     Пиковый уровень 100.0 %
     Качество диапазона 100.0 %
     CRC копии 81FBF08A
     Копирование... OK
Ошибок не произошло
AccurateRip: сводка
Трек  1  нет в базе данных
Трек  2  нет в базе данных
Трек  3  нет в базе данных
Трек  4  нет в базе данных
Трек  5  нет в базе данных
Трек  6  нет в базе данных
Трек  7  нет в базе данных
Трек  8  нет в базе данных
Трек  9  нет в базе данных
Трек 10  нет в базе данных
Ни одного трека нет в базе AccurateRip
Конец отчёта

Отчёт Audiochecker

AUDIOCHECKER v2.0 beta (build 457) - by Dester - opdester@freemail.hu
~~~~~~~~~~~~~~~~~~~~~~~~~~~~~~~~~~
-=== DO NOT EDIT THIS FILE! ===-
Path: ...\1970 - Il Forestiero
1 -=- Adriano Celentano - Il Forestiero.flac -=- CDDA (100%)
147137012
[Профиль] [ЛС]

Создавать темы 13-Авг-2015 10:42 (спустя 7 месяцев 23 дня)

Топик был перенесен из форума Зарубежная в форум World Pop
sergej644
 
Кто просматривает тему:

Форум Тема Автор Размер
World Pop (Pop) Adriano Celentano - Veleno - 2014, MP3, 320 kbps bot 116 MB
Показать сообщения:    

Текущее время: Сегодня 18:30

Часовой пояс: GMT



Вы не можете начинать темы
Вы не можете отвечать на сообщения
Вы не можете редактировать свои сообщения
Вы не можете удалять свои сообщения
Вы не можете голосовать в опросах
Вы не можете прикреплять файлы к сообщениям
Вы не можете скачивать файлы