(Pop)Adriano Celentano - Golden Hits (2013) 3CD [FLAC|Lossless]

 
Автор Сообщение

sergej644 ®

Пол:

Стаж: 4 года 11 месяцев

Сообщений: 6046

Откуда: Soviet Union



Награды: Нет

Торрент-статистика

Создавать темы 22-Ноя-2014 20:48

[Цитировать]

-Adriano Celentano - Golden Hits (2013)-Год: 2013
Жанр: Pop
Продолжительность: 01:38:51
Лейбл: ZYX Music
Каталог: ZYX 59010-2
Кодек: FLAC (image+.cue + log)
Битрейт: Lossless Треклист:

CD 1

01. Buonasera Signorina (2:47)
02. Non Esiste L'Amor (2:14)
03. Blue Jeans Rock (2:24)
04. Ciao Ti Diro (2:37)
05. Si E' Spento Il Sole (2:55)
06. La Gatta Che Scotta (2:14)
07. Teddy Girl (2:18)
08. Piccola (1:39)
09. Il Tuo Bacio E' Come Un Rock (2:01)
10. Ventiquattromilla Baci (2:17)
11. A Cosa Serve Soffire (2:25)
12. Sei Rimasta Sola (2:23)
13. Forse Forse (2:09)
14. La Mezza Luna (2:31)
15. Desidero Te (1:57)
16. Un' Ora Con Te (1:56)
Продолжительноcть – 00:36:46

Отчёт ЕАС:

Exact Audio Copy V1.0 beta 3 from 29. August 2011
EAC extraction logfile from 26. April 2014, 13:23
Adriano Celentano / Golden Hits (CD#1)
Used drive  : TSSTcorpCDDVDW SH-224DB   Adapter: 0  ID: 5
Read mode               : Secure
Utilize accurate stream : Yes
Defeat audio cache      : Yes
Make use of C2 pointers : No
Read offset correction                      : 6
Overread into Lead-In and Lead-Out          : No
Fill up missing offset samples with silence : Yes
Delete leading and trailing silent blocks   : No
Null samples used in CRC calculations       : Yes
Used interface                              : Native Win32 interface for Win NT & 2000
Used output format              : User Defined Encoder
Selected bitrate                : 1024 kBit/s
Quality                         : High
Add ID3 tag                     : No
Command line compressor         : C:\Program Files (x86)\Exact Audio Copy\FLAC\FLAC.EXE
Additional command line options : -6 -V -T "Date=%year%" -T "Genre=%genre%" -T "COMMENT=ripped by M66®" %source%
TOC of the extracted CD
     Track |   Start  |  Length  | Start sector | End sector
    ---------------------------------------------------------
        1  |  0:00.00 |  2:46.60 |         0    |    12509
        2  |  2:46.60 |  2:13.72 |     12510    |    22556
        3  |  5:00.57 |  2:24.34 |     22557    |    33390
        4  |  7:25.16 |  2:36.72 |     33391    |    45162
        5  | 10:02.13 |  2:54.73 |     45163    |    58285
        6  | 12:57.11 |  2:13.52 |     58286    |    68312
        7  | 15:10.63 |  2:18.13 |     68313    |    78675
        8  | 17:29.01 |  1:39.13 |     78676    |    86113
        9  | 19:08.14 |  2:00.71 |     86114    |    95184
       10  | 21:09.10 |  2:17.34 |     95185    |   105493
       11  | 23:26.44 |  2:24.69 |    105494    |   116362
       12  | 25:51.38 |  2:22.61 |    116363    |   127073
       13  | 28:14.24 |  2:08.43 |    127074    |   136716
       14  | 30:22.67 |  2:30.58 |    136717    |   148024
       15  | 32:53.50 |  1:56.71 |    148025    |   156795
       16  | 34:50.46 |  1:55.62 |    156796    |   165482
Range status and errors
Selected range
     Filename G:\Out\Adriano Celentano-2013-Golden Hits (ZYX Music, 3CD-Set)\CD#1\Adriano Celentano - Golden Hits (CD#1).wav
     Peak level 98.8 %
     Extraction speed 2.7 X
     Range quality 99.9 %
     Test CRC F987CFCA
     Copy CRC F987CFCA
     Copy OK
No errors occurred
AccurateRip summary
Track  1  not present in database
Track  2  not present in database
Track  3  not present in database
Track  4  not present in database
Track  5  not present in database
Track  6  not present in database
Track  7  not present in database
Track  8  not present in database
Track  9  not present in database
Track 10  not present in database
Track 11  not present in database
Track 12  not present in database
Track 13  not present in database
Track 14  not present in database
Track 15  not present in database
Track 16  not present in database
None of the tracks are present in the AccurateRip database
End of status report
==== Log checksum 65180FEFD3F75A5F29C64AD365CA2115F2444966C901317AA6806C463171E1FE ====

Отчёт auCDtect:

-----------------------
DON'T MODIFY THIS FILE
-----------------------
PERFORMER: auCDtect Task Manager, ver. 1.5.1RC6 build 1.5.1.7
Copyright (c) 2008-2010 y-soft. All rights reserved
http://y-soft.org
ANALYZER: auCDtect: CD records authenticity detector, version 0.8.2
Copyright (c) 2004 Oleg Berngardt. All rights reserved.
Copyright (c) 2004 Alexander Djourik. All rights reserved.
FILE: Adriano Celentano - Golden Hits (CD#1).flac
  Size: 169404829 Hash: D33E3252920E361AE0C8CB21B7061FEC Accuracy: -m8
  Conclusion: CDDA 99%
  Signature: 9E26D244ABF0364AF23C6779FEB9CA438A11D719

CD 2

Треклиcт:
01. Personality (2:41)
02. Cosi No (2:07)
03. Impazzivo Per Te (2:01)
04. Auli Ule (1:54)
05. Ciao Amore (2:23)
06. Il Ribelle (2:21)
07. Peppermint Twist (2:24)
08. Ritorna Lo Shimmy (1:46)
09. Nikita Rock (2:08)
10. Serafino Campanaro (2:04)
11. Movimento Di Rock (1:53)
12. Che Dritta! (2:13)
13. I Ragazzi Del Juke Box (1:57)
14. Pronto Pronto (1:58)
Продолжительноcть – 00:29:50

Отчёт ЕАС:

Exact Audio Copy V1.0 beta 3 from 29. August 2011
EAC extraction logfile from 26. April 2014, 12:54
Adriano Celentano / Golden Hits (CD#2)
Used drive  : TSSTcorpCDDVDW SH-224DB   Adapter: 0  ID: 5
Read mode               : Secure
Utilize accurate stream : Yes
Defeat audio cache      : Yes
Make use of C2 pointers : No
Read offset correction                      : 6
Overread into Lead-In and Lead-Out          : No
Fill up missing offset samples with silence : Yes
Delete leading and trailing silent blocks   : No
Null samples used in CRC calculations       : Yes
Used interface                              : Native Win32 interface for Win NT & 2000
Used output format              : User Defined Encoder
Selected bitrate                : 1024 kBit/s
Quality                         : High
Add ID3 tag                     : No
Command line compressor         : C:\Program Files (x86)\Exact Audio Copy\FLAC\FLAC.EXE
Additional command line options : -6 -V -T "Date=%year%" -T "Genre=%genre%" -T "COMMENT=ripped by M66®" %source%
TOC of the extracted CD
     Track |   Start  |  Length  | Start sector | End sector
    ---------------------------------------------------------
        1  |  0:00.00 |  2:40.41 |         0    |    12040
        2  |  2:40.41 |  2:07.07 |     12041    |    21572
        3  |  4:47.48 |  2:01.29 |     21573    |    30676
        4  |  6:49.02 |  1:54.17 |     30677    |    39243
        5  |  8:43.19 |  2:22.57 |     39244    |    49950
        6  | 11:06.01 |  2:21.32 |     49951    |    60557
        7  | 13:27.33 |  2:24.26 |     60558    |    71383
        8  | 15:51.59 |  1:45.72 |     71384    |    79330
        9  | 17:37.56 |  2:08.06 |     79331    |    88936
       10  | 19:45.62 |  2:04.20 |     88937    |    98256
       11  | 21:50.07 |  1:52.49 |     98257    |   106705
       12  | 23:42.56 |  2:12.73 |    106706    |   116678
       13  | 25:55.54 |  1:56.53 |    116679    |   125431
       14  | 27:52.32 |  1:57.68 |    125432    |   134274
Range status and errors
Selected range
     Filename G:\Out\Adriano Celentano-2013-Golden Hits (ZYX Music, 3CD-Set)\CD#2\Adriano Celentano - Golden Hits (CD#2).wav
     Peak level 98.8 %
     Extraction speed 2.6 X
     Range quality 100.0 %
     Test CRC 434E3A8B
     Copy CRC 434E3A8B
     Copy OK
No errors occurred
AccurateRip summary
Track  1  not present in database
Track  2  not present in database
Track  3  not present in database
Track  4  not present in database
Track  5  not present in database
Track  6  not present in database
Track  7  not present in database
Track  8  not present in database
Track  9  not present in database
Track 10  not present in database
Track 11  not present in database
Track 12  not present in database
Track 13  not present in database
Track 14  not present in database
None of the tracks are present in the AccurateRip database
End of status report
==== Log checksum 0709575C508C9616E22A4C7BFD6E1D81B87B3BFCF5C51E0EB38AC5A052C88C8D ====

Отчёт auCDtect:

-----------------------
DON'T MODIFY THIS FILE
-----------------------
PERFORMER: auCDtect Task Manager, ver. 1.5.1RC6 build 1.5.1.7
Copyright (c) 2008-2010 y-soft. All rights reserved
http://y-soft.org
ANALYZER: auCDtect: CD records authenticity detector, version 0.8.2
Copyright (c) 2004 Oleg Berngardt. All rights reserved.
Copyright (c) 2004 Alexander Djourik. All rights reserved.
FILE: Adriano Celentano - Golden Hits (CD#2).flac
  Size: 127095809 Hash: 4D2C203A4BE97A817AD71D3C9D4AC4A2 Accuracy: -m8
  Conclusion: CDDA 100%
  Signature: 4331200D590DBEF56D0DB513BBB9BFC863B18381

CD 3

Треклиcт:
01. Jailhouse Rock (2:27)
02. Non Essere Timida (Little Lonely One) (2:26)
03. Nata Per Me (2:47)
04. Preghero (Stand By Me) (2:59)
05. Furore (2:26)
06. La Mezzaluna (2:30)
07. Veleno (1:56)
08. La Febbre Dell'hoola Hop (2:04)
09. Tutti Frutti (2:06)
10. Basta (2:09)
11. Gillie (2:27)
12. Pitagora (1:46)
13. Rock Matto (1:50)
14. Nessuno Credera (2:21)
Продолжительноcть – 00:32:15

Отчёт ЕАС:

Exact Audio Copy V1.0 beta 3 from 29. August 2011
EAC extraction logfile from 26. April 2014, 12:13
Adriano Celentano / Golden Hits (CD#3)
Used drive  : TSSTcorpCDDVDW SH-224DB   Adapter: 0  ID: 5
Read mode               : Secure
Utilize accurate stream : Yes
Defeat audio cache      : Yes
Make use of C2 pointers : No
Read offset correction                      : 6
Overread into Lead-In and Lead-Out          : No
Fill up missing offset samples with silence : Yes
Delete leading and trailing silent blocks   : No
Null samples used in CRC calculations       : Yes
Used interface                              : Native Win32 interface for Win NT & 2000
Used output format              : User Defined Encoder
Selected bitrate                : 1024 kBit/s
Quality                         : High
Add ID3 tag                     : No
Command line compressor         : C:\Program Files (x86)\Exact Audio Copy\FLAC\FLAC.EXE
Additional command line options : -6 -V -T "Date=%year%" -T "Genre=%genre%" -T "COMMENT=ripped by M66®" %source%
TOC of the extracted CD
     Track |   Start  |  Length  | Start sector | End sector
    ---------------------------------------------------------
        1  |  0:00.00 |  2:26.39 |         0    |    10988
        2  |  2:26.39 |  2:25.53 |     10989    |    21916
        3  |  4:52.17 |  2:47.15 |     21917    |    34456
        4  |  7:39.32 |  2:59.03 |     34457    |    47884
        5  | 10:38.35 |  2:26.31 |     47885    |    58865
        6  | 13:04.66 |  2:29.58 |     58866    |    70098
        7  | 15:34.49 |  1:55.54 |     70099    |    78777
        8  | 17:30.28 |  2:04.16 |     78778    |    88093
        9  | 19:34.44 |  2:06.22 |     88094    |    97565
       10  | 21:40.66 |  2:08.41 |     97566    |   107206
       11  | 23:49.32 |  2:27.34 |    107207    |   118265
       12  | 26:16.66 |  1:45.74 |    118266    |   126214
       13  | 28:02.65 |  1:50.29 |    126215    |   134493
       14  | 29:53.19 |  2:21.27 |    134494    |   145095
Range status and errors
Selected range
     Filename G:\Out\Adriano Celentano-2013-Golden Hits (ZYX Music, 3CD-Set)\CD#3\Adriano Celentano - Golden Hits (CD#3).wav
     Peak level 98.8 %
     Extraction speed 2.7 X
     Range quality 100.0 %
     Test CRC E406AFCA
     Copy CRC E406AFCA
     Copy OK
No errors occurred
AccurateRip summary
Track  1  not present in database
Track  2  not present in database
Track  3  not present in database
Track  4  not present in database
Track  5  not present in database
Track  6  not present in database
Track  7  not present in database
Track  8  not present in database
Track  9  not present in database
Track 10  not present in database
Track 11  not present in database
Track 12  not present in database
Track 13  not present in database
Track 14  not present in database
None of the tracks are present in the AccurateRip database
End of status report
==== Log checksum 977BA5E8B0EEEC22397B985461FEDFB1C3AFCE56BAABCEBDDC43216060B75254 ====

Отчёт auCDtect:

-----------------------
DON'T MODIFY THIS FILE
-----------------------
PERFORMER: auCDtect Task Manager, ver. 1.5.1RC6 build 1.5.1.7
Copyright (c) 2008-2010 y-soft. All rights reserved
http://y-soft.org
ANALYZER: auCDtect: CD records authenticity detector, version 0.8.2
Copyright (c) 2004 Oleg Berngardt. All rights reserved.
Copyright (c) 2004 Alexander Djourik. All rights reserved.
FILE: Adriano Celentano - Golden Hits (CD#3).flac
  Size: 194797479 Hash: 6BC2AF22F410BA71DED4AA2409BC311A Accuracy: -m8
  Conclusion: CDDA 100%
  Signature: E30029CDDF6955C3B0E4E4366338EA51E26FA243
--
[Профиль] [ЛС]

Создавать темы 13-Авг-2015 10:56 (спустя 8 месяцев 20 дней)

Топик был перенесен из форума Зарубежная в форум World Pop
sergej644
 
Показать сообщения:    

Текущее время: Сегодня 08:17

Часовой пояс: GMT



Вы не можете начинать темы
Вы не можете отвечать на сообщения
Вы не можете редактировать свои сообщения
Вы не можете удалять свои сообщения
Вы не можете голосовать в опросах
Вы не можете прикреплять файлы к сообщениям
Вы не можете скачивать файлы