(Pop) Ace Of Base - Hidden Gems - 2015 [FLAC, tracks+.cue, lossless]

 
Автор Сообщение

sergej644 ®

Пол:

Стаж: 4 года 11 месяцев

Сообщений: 6046

Откуда: Soviet Union



Награды: Нет

Торрент-статистика

Создавать темы 28-Июл-2015 23:11

[Цитировать]

-Ace Of Base / Hidden Gems-- Год издания: 2015
Страна: Sweden
Жанр: Pop
Продолжительность: 00:49:35-Лейбл издания: E.A.R. Music
Страна-выпуска диска: Germany
Номер по каталогу: 0210507EMU
Формат: FLAC
Битрейт аудио: lossless
Тип рипа: tracks+.cue
Наличие сканов в содержимом раздачи: да
-

Трэклист

01.Would You Believe (02:51)
02.Go Go Go (03:30)
03.Into The Night Of Blue (04:14)
04.Don’t Stop (02:50)
05.Make My Day (02:56)
06.Mercy Mercy (03:38)
07.No Good Lover (03:36)
08.Summer Days (03:47)
09.Giving It Up (2014 Remake) (02:47)
10.Come To Me (03:55)
11.Prime Time (03:15)
12.Look Around Me (03:17)
13.Pole Position (03:24)
14.Sunset In Southern California (03:13)
15.Moment Of Magic (02:30)

Лог создания рипа

Exact Audio Copy V1.0 beta 6 from 9. April 2015
EAC extraction logfile from 20. July 2015, 20:39
Ace Of Base / Hidden Gems
Used drive  : PLEXTOR DVDR   PX-891SA   Adapter: 1  ID: 1
Read mode               : Secure
Utilize accurate stream : Yes
Defeat audio cache      : Yes
Make use of C2 pointers : No
Read offset correction                      : 6
Overread into Lead-In and Lead-Out          : No
Fill up missing offset samples with silence : Yes
Delete leading and trailing silent blocks   : No
Null samples used in CRC calculations       : Yes
Used interface                              : Native Win32 interface for Win NT & 2000
Gap handling                                : Appended to previous track
Used output format              : User Defined Encoder
Selected bitrate                : 1024 kBit/s
Quality                         : High
Add ID3 tag                     : No
Command line compressor         : C:\Program Files (x86)\Exact Audio Copy\Flac\flac.exe
Additional command line options : -0 -V -T "ARTIST=%artist%" -T "TITLE=%title%" -T "ALBUM=%albumtitle%" -T "DATE=%year%" -T "TRACKNUMBER=%tracknr%" -T "TOTALTRACKS=%numtracks%" -T "GENRE=%genre%" -T "COMMENT=Naftamusic Release!" %source%
TOC of the extracted CD
     Track |   Start  |  Length  | Start sector | End sector
    ---------------------------------------------------------
        1  |  0:00.00 |  2:50.35 |         0    |    12784
        2  |  2:50.35 |  3:29.27 |     12785    |    28486
        3  |  6:19.62 |  4:13.01 |     28487    |    47462
        4  | 10:32.63 |  2:49.06 |     47463    |    60143
        5  | 13:21.69 |  2:55.73 |     60144    |    73341
        6  | 16:17.67 |  3:37.37 |     73342    |    89653
        7  | 19:55.29 |  3:35.12 |     89654    |   105790
        8  | 23:30.41 |  3:46.65 |    105791    |   122805
        9  | 27:17.31 |  2:46.57 |    122806    |   135312
       10  | 30:04.13 |  3:54.17 |    135313    |   152879
       11  | 33:58.30 |  3:14.67 |    152880    |   167496
       12  | 37:13.22 |  3:16.01 |    167497    |   182197
       13  | 40:29.23 |  3:23.24 |    182198    |   197446
       14  | 43:52.47 |  3:12.14 |    197447    |   211860
       15  | 47:04.61 |  2:29.30 |    211861    |   223065
Track  1
     Filename E:\Nafta Releases\Ace Of Base ?– Hidden Gems (2015)[FLAC] - Naftamusic\01 - Would You Believe.wav
     Pre-gap length  0:00:02.00
     Peak level 94.4 %
     Extraction speed 1.7 X
     Track quality 100.0 %
     Test CRC 99F30B78
     Copy CRC 99F30B78
     Accurately ripped (confidence 2)  [9EB6A428]  (AR v2)
     Copy OK
Track  2
     Filename E:\Nafta Releases\Ace Of Base ?– Hidden Gems (2015)[FLAC] - Naftamusic\02 - Go Go Go.wav
     Peak level 94.4 %
     Extraction speed 2.0 X
     Track quality 100.0 %
     Test CRC DBB50DD1
     Copy CRC DBB50DD1
     Accurately ripped (confidence 2)  [E4D980AA]  (AR v2)
     Copy OK
Track  3
     Filename E:\Nafta Releases\Ace Of Base ?– Hidden Gems (2015)[FLAC] - Naftamusic\03 - Into The Night Of Blue.wav
     Peak level 94.4 %
     Extraction speed 2.2 X
     Track quality 100.0 %
     Test CRC 46206B19
     Copy CRC 46206B19
     Accurately ripped (confidence 3)  [822CE127]  (AR v2)
     Copy OK
Track  4
     Filename E:\Nafta Releases\Ace Of Base ?– Hidden Gems (2015)[FLAC] - Naftamusic\04 - Don’t Stop.wav
     Peak level 94.4 %
     Extraction speed 2.2 X
     Track quality 100.0 %
     Test CRC 91AE84F8
     Copy CRC 91AE84F8
     Accurately ripped (confidence 2)  [78AA815C]  (AR v2)
     Copy OK
Track  5
     Filename E:\Nafta Releases\Ace Of Base ?– Hidden Gems (2015)[FLAC] - Naftamusic\05 - Make My Day.wav
     Peak level 94.4 %
     Extraction speed 2.0 X
     Track quality 99.9 %
     Test CRC BF61765C
     Copy CRC BF61765C
     Accurately ripped (confidence 2)  [D29F1661]  (AR v2)
     Copy OK
Track  6
     Filename E:\Nafta Releases\Ace Of Base ?– Hidden Gems (2015)[FLAC] - Naftamusic\06 - Mercy Mercy.wav
     Peak level 94.4 %
     Extraction speed 2.5 X
     Track quality 100.0 %
     Test CRC 53889716
     Copy CRC 53889716
     Accurately ripped (confidence 2)  [804EC862]  (AR v2)
     Copy OK
Track  7
     Filename E:\Nafta Releases\Ace Of Base ?– Hidden Gems (2015)[FLAC] - Naftamusic\07 - No Good Lover.wav
     Peak level 94.4 %
     Extraction speed 2.7 X
     Track quality 100.0 %
     Test CRC 05B4CEE2
     Copy CRC 05B4CEE2
     Accurately ripped (confidence 2)  [43B847F6]  (AR v2)
     Copy OK
Track  8
     Filename E:\Nafta Releases\Ace Of Base ?– Hidden Gems (2015)[FLAC] - Naftamusic\08 - Summer Days.wav
     Peak level 94.4 %
     Extraction speed 2.8 X
     Track quality 100.0 %
     Test CRC AD504077
     Copy CRC AD504077
     Accurately ripped (confidence 2)  [EDDEC4F5]  (AR v2)
     Copy OK
Track  9
     Filename E:\Nafta Releases\Ace Of Base ?– Hidden Gems (2015)[FLAC] - Naftamusic\09 - Giving It Up (2014 Remake).wav
     Peak level 94.4 %
     Extraction speed 2.8 X
     Track quality 100.0 %
     Test CRC 9519ED84
     Copy CRC 9519ED84
     Accurately ripped (confidence 3)  [FD6C91BC]  (AR v2)
     Copy OK
Track 10
     Filename E:\Nafta Releases\Ace Of Base ?– Hidden Gems (2015)[FLAC] - Naftamusic\10 - Come To Me.wav
     Peak level 94.4 %
     Extraction speed 3.1 X
     Track quality 100.0 %
     Test CRC 85EF3DAA
     Copy CRC 85EF3DAA
     Accurately ripped (confidence 2)  [A3933919]  (AR v2)
     Copy OK
Track 11
     Filename E:\Nafta Releases\Ace Of Base ?– Hidden Gems (2015)[FLAC] - Naftamusic\11 - Prime Time.wav
     Peak level 100.0 %
     Extraction speed 2.7 X
     Track quality 99.9 %
     Test CRC 50CCA9F5
     Copy CRC 50CCA9F5
     Accurately ripped (confidence 3)  [26C80D62]  (AR v2)
     Copy OK
Track 12
     Filename E:\Nafta Releases\Ace Of Base ?– Hidden Gems (2015)[FLAC] - Naftamusic\12 - Look Around Me.wav
     Peak level 94.4 %
     Extraction speed 3.2 X
     Track quality 100.0 %
     Test CRC A717CDFB
     Copy CRC A717CDFB
     Accurately ripped (confidence 2)  [91D30F47]  (AR v2)
     Copy OK
Track 13
     Filename E:\Nafta Releases\Ace Of Base ?– Hidden Gems (2015)[FLAC] - Naftamusic\13 - Pole Position.wav
     Peak level 94.4 %
     Extraction speed 3.3 X
     Track quality 100.0 %
     Test CRC 98916A92
     Copy CRC 98916A92
     Accurately ripped (confidence 3)  [B8B67C0D]  (AR v2)
     Copy OK
Track 14
     Filename E:\Nafta Releases\Ace Of Base ?– Hidden Gems (2015)[FLAC] - Naftamusic\14 - Sunset In Southern California.wav
     Peak level 94.4 %
     Extraction speed 3.4 X
     Track quality 100.0 %
     Test CRC 23ED7D76
     Copy CRC 23ED7D76
     Accurately ripped (confidence 2)  [D89E721C]  (AR v2)
     Copy OK
Track 15
     Filename E:\Nafta Releases\Ace Of Base ?– Hidden Gems (2015)[FLAC] - Naftamusic\15 - Moment Of Magic.wav
     Peak level 94.4 %
     Extraction speed 2.7 X
     Track quality 99.9 %
     Test CRC 8AFE5AA0
     Copy CRC 8AFE5AA0
     Accurately ripped (confidence 2)  [0511A133]  (AR v2)
     Copy OK
All tracks accurately ripped
No errors occurred
End of status report

Индексная карта (non-compilant .cue)

REM GENRE "Electronic, Pop"
REM DATE 2015
REM DISCID C20B9E0F
REM COMMENT "ExactAudioCopy v1.0b6"
PERFORMER "Ace Of Base"
TITLE "Hidden Gems"
FILE "01 - Would You Believe.wav" WAVE
  TRACK 01 AUDIO
    TITLE "Would You Believe"
    PERFORMER "Ace Of Base"
    INDEX 01 00:00:00
FILE "02 - Go Go Go.wav" WAVE
  TRACK 02 AUDIO
    TITLE "Go Go Go"
    PERFORMER "Ace Of Base"
    INDEX 01 00:00:00
FILE "03 - Into The Night Of Blue.wav" WAVE
  TRACK 03 AUDIO
    TITLE "Into The Night Of Blue"
    PERFORMER "Ace Of Base"
    INDEX 01 00:00:00
FILE "04 - Don’t Stop.wav" WAVE
  TRACK 04 AUDIO
    TITLE "Don’t Stop"
    PERFORMER "Ace Of Base"
    INDEX 01 00:00:00
FILE "05 - Make My Day.wav" WAVE
  TRACK 05 AUDIO
    TITLE "Make My Day"
    PERFORMER "Ace Of Base"
    INDEX 01 00:00:00
FILE "06 - Mercy Mercy.wav" WAVE
  TRACK 06 AUDIO
    TITLE "Mercy Mercy"
    PERFORMER "Ace Of Base"
    INDEX 01 00:00:00
FILE "07 - No Good Lover.wav" WAVE
  TRACK 07 AUDIO
    TITLE "No Good Lover"
    PERFORMER "Ace Of Base"
    INDEX 01 00:00:00
FILE "08 - Summer Days.wav" WAVE
  TRACK 08 AUDIO
    TITLE "Summer Days"
    PERFORMER "Ace Of Base"
    INDEX 01 00:00:00
FILE "09 - Giving It Up (2014 Remake).wav" WAVE
  TRACK 09 AUDIO
    TITLE "Giving It Up (2014 Remake)"
    PERFORMER "Ace Of Base"
    INDEX 01 00:00:00
FILE "10 - Come To Me.wav" WAVE
  TRACK 10 AUDIO
    TITLE "Come To Me"
    PERFORMER "Ace Of Base"
    INDEX 01 00:00:00
FILE "11 - Prime Time.wav" WAVE
  TRACK 11 AUDIO
    TITLE "Prime Time"
    PERFORMER "Ace Of Base"
    INDEX 01 00:00:00
FILE "12 - Look Around Me.wav" WAVE
  TRACK 12 AUDIO
    TITLE "Look Around Me"
    PERFORMER "Ace Of Base"
    INDEX 01 00:00:00
FILE "13 - Pole Position.wav" WAVE
  TRACK 13 AUDIO
    TITLE "Pole Position"
    PERFORMER "Ace Of Base"
    INDEX 01 00:00:00
FILE "14 - Sunset In Southern California.wav" WAVE
  TRACK 14 AUDIO
    TITLE "Sunset In Southern California"
    PERFORMER "Ace Of Base"
    INDEX 01 00:00:00
FILE "15 - Moment Of Magic.wav" WAVE
  TRACK 15 AUDIO
    TITLE "Moment Of Magic"
    PERFORMER "Ace Of Base"
    INDEX 01 00:00:00

Лог Audiochecker

AUDIOCHECKER v2.0 beta (build 457) - by Dester - opdester@freemail.hu
~~~~~~~~~~~~~~~~~~~~~~~~~~~~~~~~~~
Started at: среда, 29. 07. 2015. - 1:28.44
15 files found
01 -===- D:\Torrent files\Ace Of Base 2015 Hidden Gems (Ear Music, 0210507EMU)\01 - Would You Believe.flac
  Extracted successfully
  Conclusion: this track is CDDA with probability 100%
  Tempfile successfully deleted.
02 -===- D:\Torrent files\Ace Of Base 2015 Hidden Gems (Ear Music, 0210507EMU)\02 - Go Go Go.flac
  Extracted successfully
  Conclusion: this track is CDDA with probability 100%
  Tempfile successfully deleted.
03 -===- D:\Torrent files\Ace Of Base 2015 Hidden Gems (Ear Music, 0210507EMU)\03 - Into The Night Of Blue.flac
  Extracted successfully
  Conclusion: this track is CDDA with probability 100%
  Tempfile successfully deleted.
04 -===- D:\Torrent files\Ace Of Base 2015 Hidden Gems (Ear Music, 0210507EMU)\04 - Don’t Stop.flac
  Extracted successfully
  Conclusion: this track is CDDA with probability 100%
  Tempfile successfully deleted.
05 -===- D:\Torrent files\Ace Of Base 2015 Hidden Gems (Ear Music, 0210507EMU)\05 - Make My Day.flac
  Extracted successfully
  Conclusion: this track is CDDA with probability 100%
  Tempfile successfully deleted.
06 -===- D:\Torrent files\Ace Of Base 2015 Hidden Gems (Ear Music, 0210507EMU)\06 - Mercy Mercy.flac
  Extracted successfully
  Conclusion: this track is CDDA with probability 100%
  Tempfile successfully deleted.
07 -===- D:\Torrent files\Ace Of Base 2015 Hidden Gems (Ear Music, 0210507EMU)\07 - No Good Lover.flac
  Extracted successfully
  Conclusion: this track is CDDA with probability 100%
  Tempfile successfully deleted.
08 -===- D:\Torrent files\Ace Of Base 2015 Hidden Gems (Ear Music, 0210507EMU)\08 - Summer Days.flac
  Extracted successfully
  Conclusion: this track is CDDA with probability 86%
  Tempfile successfully deleted.
09 -===- D:\Torrent files\Ace Of Base 2015 Hidden Gems (Ear Music, 0210507EMU)\09 - Giving It Up (2014 Remake).flac
  Extracted successfully
  Conclusion: this track is CDDA with probability 100%
  Tempfile successfully deleted.
10 -===- D:\Torrent files\Ace Of Base 2015 Hidden Gems (Ear Music, 0210507EMU)\10 - Come To Me.flac
  Extracted successfully
  Conclusion: could not qualify the source of this track
  Tempfile successfully deleted.
11 -===- D:\Torrent files\Ace Of Base 2015 Hidden Gems (Ear Music, 0210507EMU)\11 - Prime Time.flac
  Extracted successfully
  Conclusion: this track is CDDA with probability 100%
  Tempfile successfully deleted.
12 -===- D:\Torrent files\Ace Of Base 2015 Hidden Gems (Ear Music, 0210507EMU)\12 - Look Around Me.flac
  Extracted successfully
  Conclusion: this track is MPEG with probability 95%
  Tempfile successfully deleted.
13 -===- D:\Torrent files\Ace Of Base 2015 Hidden Gems (Ear Music, 0210507EMU)\13 - Pole Position.flac
  Extracted successfully
  Conclusion: this track is CDDA with probability 100%
  Tempfile successfully deleted.
14 -===- D:\Torrent files\Ace Of Base 2015 Hidden Gems (Ear Music, 0210507EMU)\14 - Sunset In Southern California.flac
  Extracted successfully
  Conclusion: this track is CDDA with probability 100%
  Tempfile successfully deleted.
15 -===- D:\Torrent files\Ace Of Base 2015 Hidden Gems (Ear Music, 0210507EMU)\15 - Moment Of Magic.flac
  Extracted successfully
  Conclusion: this track is CDDA with probability 100%
  Tempfile successfully deleted.
Finished at: среда, 29. 07. 2015. - 1:30.54 (operation time: 0:02.09)
--Не забываем говорить
[Профиль] [ЛС]

Создавать темы 13-Авг-2015 10:42 (спустя 15 дней)

Топик был перенесен из форума Зарубежная в форум World Pop
sergej644
 
Кто просматривает тему:

Показать сообщения:    

Текущее время: Сегодня 16:56

Часовой пояс: GMT



Вы не можете начинать темы
Вы не можете отвечать на сообщения
Вы не можете редактировать свои сообщения
Вы не можете удалять свои сообщения
Вы не можете голосовать в опросах
Вы не можете прикреплять файлы к сообщениям
Вы не можете скачивать файлы