(Hard Rock)Ace Frehley - Space Invader (2014) [FLAC(image+cue), Lossless]

 
Автор Сообщение

sergej644 ®

Пол:

Стаж: 4 года 11 месяцев

Сообщений: 6046

Откуда: Soviet Union



Награды: Нет

Торрент-статистика

Создавать темы 13-Окт-2014 11:34

[Цитировать]

-Ace Frehley - Space Invader (2014)-Год: 2014
Жанр: Hard Rock
Продолжительность: 01:03:18
Лейбл: SPV
№ по каталогу: SPV267660CD
Страна: USA
Кодек: Flac
Тип рипа: image+.cue
Битрейт: Lossless
Источник: RD-Треклист:
01. Space Invader
02. Gimme A Feelin' (radio edit)
03. I Wanna Hold You
04. Change
05. Toys
06. Immortal Pleasures
07. Inside The Vortex
08. What Every Girl Wants
09. Past The Milky Way
10. Reckless
11. The Joker
12. Starship
13. Space Invader (radio edit) (Bonus Track)
14. Gimme a Feelin' (explicit version) (Bonus Track)-

Отчёт ЕАС:

Exact Audio Copy V1.0 beta 3 from 29. August 2011
EAC extraction logfile from 13. September 2014, 8:33
Ace Frehley / Space Invader
Used drive  : MATSHITABD-CMB UJ242AS   Adapter: 0  ID: 1
Read mode               : Secure
Utilize accurate stream : Yes
Defeat audio cache      : Yes
Make use of C2 pointers : No
Read offset correction                      : 103
Overread into Lead-In and Lead-Out          : No
Fill up missing offset samples with silence : Yes
Delete leading and trailing silent blocks   : No
Null samples used in CRC calculations       : Yes
Used interface                              : Installed external ASPI interface
Used output format              : User Defined Encoder
Selected bitrate                : 1024 kBit/s
Quality                         : High
Add ID3 tag                     : Yes
Command line compressor         : C:\Program Files (x86)\Exact Audio Copy\Flac\flac.exe
Additional command line options : -V -8 -T "Date=%year%" -T "Genre=%genre%" %source%
TOC of the extracted CD
     Track |   Start  |  Length  | Start sector | End sector
    ---------------------------------------------------------
        1  |  0:00.00 |  4:19.58 |         0    |    19482
        2  |  4:19.58 |  3:56.57 |     19483    |    37239
        3  |  8:16.40 |  3:34.64 |     37240    |    53353
        4  | 11:51.29 |  4:10.60 |     53354    |    72163
        5  | 16:02.14 |  4:11.20 |     72164    |    91008
        6  | 20:13.34 |  5:07.35 |     91009    |   114068
        7  | 25:20.69 |  4:42.56 |    114069    |   135274
        8  | 30:03.50 |  3:48.35 |    135275    |   152409
        9  | 33:52.10 |  5:33.58 |    152410    |   177442
       10  | 39:25.68 |  4:14.37 |    177443    |   196529
       11  | 43:40.30 |  3:37.20 |    196530    |   212824
       12  | 47:17.50 |  7:05.33 |    212825    |   244732
       13  | 54:23.08 |  4:11.61 |    244733    |   263618
       14  | 58:34.69 |  4:42.49 |    263619    |   284817
Range status and errors
Selected range
     Filename C:\EACrip\Ace Frehley - Space Invader.wav
     Peak level 99.4 %
     Extraction speed 2.4 X
     Range quality 99.9 %
     Test CRC B9CAF3EC
     Copy CRC B9CAF3EC
     Copy OK
No errors occurred
AccurateRip summary
Track  1  not present in database
Track  2  not present in database
Track  3  not present in database
Track  4  not present in database
Track  5  not present in database
Track  6  not present in database
Track  7  not present in database
Track  8  not present in database
Track  9  not present in database
Track 10  not present in database
Track 11  not present in database
Track 12  not present in database
Track 13  not present in database
Track 14  not present in database
None of the tracks are present in the AccurateRip database
End of status report
==== Log checksum 1C08AE6247474DF3A43950BEC3E04EB0D046596309B9F0EF99097CBE43AD88E0 ====

Отчёт auCDtect Task manager:

-----------------------
DON'T MODIFY THIS FILE
-----------------------
PERFORMER: auCDtect Task Manager, ver. 1.6.0 RC1 build 1.6.0.1
Copyright (c) 2008-2010 y-soft. All rights reserved
http://y-soft.org
ANALYZER: auCDtect: CD records authenticity detector, version 0.8.2
Copyright (c) 2004 Oleg Berngardt. All rights reserved.
Copyright (c) 2004 Alexander Djourik. All rights reserved.
FILE: Ace Frehley - Space Invader.flac
  Size: 495785931 Hash: 7F6DAFFD51B50D7AA0CA19108120F1A0 Accuracy: -m0
  Conclusion: CDDA 100%
  Signature: 888CD37935744556ECFCF9EC5039ACEC56FD0113
Время раздачи: c 20:00 до 22:00
[Профиль] [ЛС]
Показать сообщения:    

Текущее время: Сегодня 21:33

Часовой пояс: GMT



Вы не можете начинать темы
Вы не можете отвечать на сообщения
Вы не можете редактировать свои сообщения
Вы не можете удалять свои сообщения
Вы не можете голосовать в опросах
Вы не можете прикреплять файлы к сообщениям
Вы не можете скачивать файлы