(Heavy Metal) Accept - The Rise Of Chaos - 2017 [FLAC, tracks +.cue, lossless]

 
Автор Сообщение

sergej644 ®

Пол:

Стаж: 5 лет 11 месяцев

Сообщений: 6150

Откуда: Soviet Union



Награды: 9 (Подробнее)

Mega Seeder 2 (Количество: 1) Top Seeder 4 (Количество: 1) Mega Seeder 1 (Количество: 1)
Торрент-статистика

Создавать темы 05-Авг-2017 15:41

[Цитировать]

-Accept - The Rise Of Chaos--
Год издания: 2017
Страна: Germany
Жанр:
Продолжительность: 00:46:24-Лейбл издания: KronStudioLab Int'l
Страна-выпуска диска: EU
Номер по каталогу: KSLSD 42127.1-Формат: FLAC
Битрейт аудио: Lossless
Тип рипа: tracks +.cue
Наличие сканов в содержимом раздачи: частично
-

Трэклист


01. Die By The Sword (5:00)
02. Hole In The Head (3:59)
03. The Rise Of Chaos (5:16)
04. Koolaid (4:59)
05. No Regrets (4:20)
06. Analog Man (4:13)
07. What's Done Is Done (4:09)
08. Worlds Colliding (4:30)
09. Carry The Weight (4:34)
10. Race To Extinction (5:23)
-

Лог создания рипа

Exact Audio Copy V0.99 prebeta 5 from 4. May 2009
EAC extraction logfile from 4. August 2017, 9:29
Used drive  : ASUS    DRW-24B5ST   Adapter: 1  ID: 0
Read mode               : Secure
Utilize accurate stream : Yes
Defeat audio cache      : Yes
Make use of C2 pointers : No
Read offset correction                      : 6
Overread into Lead-In and Lead-Out          : No
Fill up missing offset samples with silence : Yes
Delete leading and trailing silent blocks   : No
Null samples used in CRC calculations       : Yes
Used interface                              : Native Win32 interface for Win NT & 2000
Gap handling                                : Appended to previous track
Used output format : Internal WAV Routines
Sample format      : 44.100 Hz; 16 Bit; Stereo
TOC of the extracted CD
     Track |   Start  |  Length  | Start sector | End sector
    ---------------------------------------------------------
        1  |  0:00.00 |  5:00.00 |         0    |    22499
        2  |  5:00.00 |  3:59.37 |     22500    |    40461
        3  |  8:59.37 |  5:16.00 |     40462    |    64161
        4  | 14:15.37 |  4:59.00 |     64162    |    86586
        5  | 19:14.37 |  4:20.00 |     86587    |   106086
        6  | 23:34.37 |  4:12.38 |    106087    |   125024
        7  | 27:47.00 |  4:09.00 |    125025    |   143699
        8  | 31:56.00 |  4:30.00 |    143700    |   163949
        9  | 36:26.00 |  4:34.37 |    163950    |   184536
       10  | 41:00.37 |  5:23.01 |    184537    |   208762
Track  1
     Filename .flac01 - Die By The Sword.wav
     Pre-gap length  0:00:02.00
     Peak level 97.3 %
     Track quality 100.0 %
     Test CRC 6CDC87AD
     Copy CRC 6CDC87AD
     Copy OK
Track  2
     Filename .flac02 - Hole In The Head.wav
     Peak level 95.0 %
     Track quality 100.0 %
     Test CRC 1EDF7DE6
     Copy CRC 1EDF7DE6
     Copy OK
Track  3
     Filename .flac03 - The Rise Of Chaos.wav
     Peak level 93.9 %
     Track quality 100.0 %
     Test CRC 898A690B
     Copy CRC 898A690B
     Copy OK
Track  4
     Filename .flac04 - Koolaid.wav
     Peak level 96.7 %
     Track quality 100.0 %
     Test CRC D74E03BB
     Copy CRC D74E03BB
     Copy OK
Track  5
     Filename .flac05 - No Regrets.wav
     Peak level 88.7 %
     Track quality 100.0 %
     Test CRC 2407BF49
     Copy CRC 2407BF49
     Copy OK
Track  6
     Filename .flac06 - Analog Man.wav
     Peak level 90.8 %
     Track quality 100.0 %
     Test CRC 62C1ABC1
     Copy CRC 62C1ABC1
     Copy OK
Track  7
     Filename .flac07 - What's Done Is Done.wav
     Peak level 90.8 %
     Track quality 100.0 %
     Test CRC 47E2B87F
     Copy CRC 47E2B87F
     Copy OK
Track  8
     Filename .flac08 - Worlds Colliding.wav
     Peak level 95.1 %
     Track quality 100.0 %
     Test CRC EEB629DC
     Copy CRC EEB629DC
     Copy OK
Track  9
     Filename .flac09 - Carry The Weight.wav
     Peak level 92.4 %
     Track quality 100.0 %
     Test CRC B9236C2A
     Copy CRC B9236C2A
     Copy OK
Track 10
     Filename .flac10 - Race To Extinction.wav
     Peak level 91.7 %
     Track quality 100.0 %
     Test CRC 818390E9
     Copy CRC 818390E9
     Copy OK
No errors occurred
End of status report

Индексная карта (non-compilant .cue)

REM GENRE "Heavy Metal"
REM DATE 2017
REM DISCID 880ADF0A
REM COMMENT "ExactAudioCopy v0.99pb5"
PERFORMER "Accept"
TITLE "The Rise Of Chaos"
FILE "Range.wav" WAVE
  TRACK 01 AUDIO
    TITLE "Die By The Sword"
    PERFORMER "Accept"
    INDEX 01 00:00:00
  TRACK 02 AUDIO
    TITLE "Hole In The Head"
    PERFORMER "Accept"
    INDEX 01 05:00:00
  TRACK 03 AUDIO
    TITLE "The Rise Of Chaos"
    PERFORMER "Accept"
    INDEX 01 08:59:37
  TRACK 04 AUDIO
    TITLE "Koolaid"
    PERFORMER "Accept"
    INDEX 01 14:15:37
  TRACK 05 AUDIO
    TITLE "No Regrets"
    PERFORMER "Accept"
    INDEX 01 19:14:37
  TRACK 06 AUDIO
    TITLE "Analog Man"
    PERFORMER "Accept"
    INDEX 01 23:34:37
  TRACK 07 AUDIO
    TITLE "What's Done Is Done"
    PERFORMER "Accept"
    INDEX 01 27:47:00
  TRACK 08 AUDIO
    TITLE "Worlds Colliding"
    PERFORMER "Accept"
    INDEX 01 31:56:00
  TRACK 09 AUDIO
    TITLE "Carry The Weight"
    PERFORMER "Accept"
    INDEX 01 36:26:00
  TRACK 10 AUDIO
    TITLE "Race To Extinction"
    PERFORMER "Accept"
    INDEX 01 41:00:37
--
[Профиль] [ЛС]
Показать сообщения:    

Текущее время: Сегодня 05:39

Часовой пояс: GMT



Вы не можете начинать темы
Вы не можете отвечать на сообщения
Вы не можете редактировать свои сообщения
Вы не можете удалять свои сообщения
Вы не можете голосовать в опросах
Вы не можете прикреплять файлы к сообщениям
Вы не можете скачивать файлы