Accept - Symphonic Terror: Live at Wacken 2017 [2018, Heavy Metal, Blu-ray, 1080p (Jpn)]

 
Автор Сообщение

dybrik13 ®

Пол:

Стаж: 1 месяц 1 день

Сообщений: 86

Откуда: Киев



Награды: 1 (Подробнее)

Друг (Количество: 1)
Торрент-статистика

Создавать темы 19-Янв-2019 09:16

[Цитировать]

-- Жанр: Heavy Metal
Продолжительность: 02:02:56
Год выпуска: 2018
Описание: Треклист:
Part 1 - Accept
1. Die by the Sword
2. Restless and Wild
3. Koolaid
4. Pandemic
5. Final Journey
Part 2 - Heartbangers Symphony
6. Night on Bald Mountain
7. Scherzo
8. Romeo and Juliet
9. Pathétique
10. Double Cello Concerto in G Minor
11. Symphony NO. 40 in G Minor
Part 3 - Accept with Orchestra
12. Princess of the Dawn
13. Stalingrad
14. Dark Side of My Heart
15. Breaker
16. Shadow Soldiers
17. Dying Breed
18. Fast as a Shark
19. Metal Heart
20. Teutonic Terror
21. Balls to the Wall
Бонусы:
22. Making of Wacken [00:08:49]
23. Making of Heartbangers Symphony [00:08:23]
Доп. информация: Японское издание.
Качество: Blu-ray
Разрешение видео/развертка: 1080p
Контейнер: BDMV
Видео кодек: H.264
Аудио кодек: PCM, DTS
Видео: MPEG-4 AVC Video 16863 kbps 1080p / 24 fps / 16:9 / High Profile 4.1
Аудио: LPCM Audio / 2.0 / 48 kHz / 1536 kbps / 16-bit
Аудио 2: DTS-HD Master Audio / 5.1 / 48 kHz / 2925 kbps / 16-bit (DTS Core: 5.1 / 48 kHz / 1509 kbps / 16-bit) (в бонусах отсутствует)

Отчёт MediaInfo / BDInfo

Disc Title: ACCEPT_BD
Disc Size: 23 546 510 332 bytes
Protection: AACS
BD-Java: No
BDInfo: 0.5.8
Notes:
BDINFO HOME:
Cinema Squid
http://www.cinemasquid.com/blu-ray/tools/bdinfo
INCLUDES FORUMS REPORT FOR:
AVS Forum Blu-ray Audio and Video Specifications Thread
http://www.avsforum.com/avs-vb/showthread.php?t=1155731
********************
PLAYLIST: 00002.MPLS
********************
<--- BEGIN FORUMS PASTE --->
Total   Video
Title                                                           Codec   Length  Movie Size      Disc Size       Bitrate Bitrate Main Audio Track                          Secondary Audio Track
-----                                                           ------  ------- --------------  --------------  ------- ------- ------------------                        ---------------------
00002.MPLS                                                      AVC     2:02:56 21 025 038 336  23 546 510 332  22,80   16,86   LPCM 2.0 1536Kbps (48kHz/16-bit)          DTS-HD Master 5.1 2925Kbps (48kHz/16-bit)
DISC INFO:
Disc Title:     ACCEPT_BD
Disc Size:      23 546 510 332 bytes
Protection:     AACS
BD-Java:        No
BDInfo:         0.5.8
PLAYLIST REPORT:
Name:                   00002.MPLS
Length:                 2:02:56.250 (h:m:s.ms)
Size:                   21 025 038 336 bytes
Total Bitrate:          22,80 Mbps
VIDEO:
Codec                   Bitrate             Description
-----                   -------             -----------
MPEG-4 AVC Video        16863 kbps          1080p / 24 fps / 16:9 / High Profile 4.1
AUDIO:
Codec                           Language        Bitrate         Description
-----                           --------        -------         -----------
LPCM Audio                      English         1536 kbps       2.0 / 48 kHz / 1536 kbps / 16-bit
DTS-HD Master Audio             English         2925 kbps       5.1 / 48 kHz / 2925 kbps / 16-bit (DTS Core: 5.1 / 48 kHz / 1509 kbps / 16-bit)
SUBTITLES:
Codec                           Language        Bitrate         Description
-----                           --------        -------         -----------
Presentation Graphics           Japanese        2,553 kbps
FILES:
Name            Time In         Length          Size            Total Bitrate
----            -------         ------          ----            -------------
00002.M2TS      0:00:00.000     2:01:12.041     20 901 525 504  22 994
00003.M2TS      2:01:12.041     0:01:44.208     123 512 832     9 482
CHAPTERS:
Number          Time In         Length          Avg Video Rate  Max 1-Sec Rate  Max 1-Sec Time  Max 5-Sec Rate  Max 5-Sec Time  Max 10Sec Rate  Max 10Sec Time  Avg Frame Size  Max Frame Size  Max Frame Time
------          -------         ------          --------------  --------------  --------------  --------------  --------------  --------------  --------------  --------------  --------------  --------------
1               0:00:00.000     0:00:51.000     21 824 kbps     38 320 kbps     00:00:11.458    34 000 kbps     00:00:08.458    29 312 kbps     00:00:04.374    113 572 bytes   441 429 bytes   00:00:09.500
2               0:00:51.000     0:04:36.000     16 167 kbps     46 469 kbps     00:00:57.999    29 863 kbps     00:00:57.500    24 291 kbps     00:00:50.999    84 202 bytes    569 837 bytes   00:00:58.541
3               0:05:27.000     0:04:44.000     18 455 kbps     46 315 kbps     00:10:03.541    32 922 kbps     00:10:02.291    28 288 kbps     00:05:31.416    96 122 bytes    552 956 bytes   00:10:03.583
4               0:10:11.000     0:05:04.000     15 686 kbps     32 533 kbps     00:12:31.083    29 387 kbps     00:15:08.583    25 244 kbps     00:15:03.541    81 699 bytes    407 789 bytes   00:14:16.625
5               0:15:15.000     0:06:01.000     17 168 kbps     47 497 kbps     00:19:18.833    35 081 kbps     00:19:18.833    27 398 kbps     00:19:15.541    89 419 bytes    570 496 bytes   00:19:18.875
6               0:21:16.000     0:05:19.000     17 593 kbps     44 739 kbps     00:26:33.416    29 460 kbps     00:25:50.166    25 022 kbps     00:25:35.791    91 628 bytes    608 925 bytes   00:26:33.458
7               0:26:35.000     0:06:19.000     17 708 kbps     42 880 kbps     00:32:48.166    38 334 kbps     00:27:27.416    34 236 kbps     00:27:26.124    92 230 bytes    618 901 bytes   00:32:48.708
8               0:32:54.000     0:05:33.000     16 304 kbps     41 721 kbps     00:33:09.541    30 584 kbps     00:33:06.583    25 673 kbps     00:33:03.624    84 915 bytes    424 062 bytes   00:33:10.583
9               0:38:27.000     0:05:45.000     18 420 kbps     50 841 kbps     00:38:52.125    34 132 kbps     00:38:58.625    30 368 kbps     00:41:56.416    95 939 bytes    604 270 bytes   00:38:52.666
10              0:44:12.000     0:05:54.000     17 549 kbps     47 494 kbps     00:49:48.583    35 436 kbps     00:50:01.000    26 501 kbps     00:49:55.958    91 401 bytes    542 045 bytes   00:49:46.416
11              0:50:06.000     0:03:37.000     17 908 kbps     40 652 kbps     00:50:38.916    26 353 kbps     00:52:24.500    24 731 kbps     00:52:16.541    93 272 bytes    483 226 bytes   00:52:41.125
12              0:53:43.000     0:04:39.000     17 739 kbps     41 792 kbps     00:58:20.666    31 226 kbps     00:55:52.083    25 731 kbps     00:55:53.958    92 393 bytes    547 819 bytes   00:58:21.708
13              0:58:22.000     0:07:36.000     19 542 kbps     54 847 kbps     01:00:05.041    38 545 kbps     00:59:02.500    32 753 kbps     00:59:02.500    101 781 bytes   587 895 bytes   01:02:50.458
14              1:05:58.000     0:06:22.000     17 084 kbps     55 996 kbps     01:07:24.583    34 758 kbps     01:10:42.875    25 782 kbps     01:10:37.833    88 979 bytes    617 340 bytes   01:07:25.125
15              1:12:20.000     0:04:40.000     19 555 kbps     53 820 kbps     01:14:57.208    37 876 kbps     01:14:57.208    31 829 kbps     01:14:51.750    101 849 bytes   667 321 bytes   01:15:52.708
16              1:17:00.000     0:04:44.000     15 439 kbps     38 181 kbps     01:17:54.625    28 584 kbps     01:21:39.000    21 674 kbps     01:19:31.500    80 413 bytes    581 383 bytes   01:19:35.833
17              1:21:44.000     0:05:59.000     16 900 kbps     43 272 kbps     01:22:23.166    33 997 kbps     01:22:21.916    25 452 kbps     01:24:11.958    88 021 bytes    500 559 bytes   01:22:25.708
18              1:27:43.000     0:05:47.000     14 337 kbps     44 758 kbps     01:30:58.166    29 878 kbps     01:30:58.125    23 906 kbps     01:30:56.708    74 671 bytes    568 498 bytes   01:33:28.708
19              1:33:30.000     0:04:58.000     15 556 kbps     48 107 kbps     01:36:30.708    32 109 kbps     01:36:27.666    27 158 kbps     01:36:22.625    81 023 bytes    571 431 bytes   01:37:18.375
20              1:38:28.000     0:07:36.000     16 615 kbps     41 320 kbps     01:43:39.500    33 037 kbps     01:44:28.000    29 203 kbps     01:44:23.000    86 538 bytes    503 962 bytes   01:45:05.708
21              1:46:04.000     0:05:43.000     15 495 kbps     49 273 kbps     01:51:42.458    36 722 kbps     01:51:42.000    24 887 kbps     01:51:36.958    80 703 bytes    670 494 bytes   01:47:12.416
22              1:51:47.000     0:09:25.041     15 611 kbps     51 865 kbps     01:55:37.500    30 161 kbps     01:53:08.500    26 611 kbps     01:56:50.250    81 308 bytes    499 943 bytes   01:57:33.333
23              2:01:12.041     0:01:44.208     7 263 kbps      12 752 kbps     02:01:56.000    11 102 kbps     02:01:54.750    10 675 kbps     02:01:54.000    37 842 bytes    195 566 bytes   02:01:56.541
STREAM DIAGNOSTICS:
File            PID             Type            Codec           Language                Seconds                 Bitrate                 Bytes           Packets
----            ---             ----            -----           --------                --------------          --------------          -------------   -----
00002.M2TS      4113 (0x1011)   0x1B            AVC                                     7271,917                17 000                  15 453 180 399  84 087 700
00002.M2TS      4352 (0x1100)   0x80            LPCM            eng (English)           7271,917                1 542                   1 402 049 312   8 726 448
00002.M2TS      4353 (0x1101)   0x86            DTS-HD MA       eng (English)           7271,917                2 967                   2 697 000 468   15 790 923
00002.M2TS      4608 (0x1200)   0x90            PGS             jpn (Japanese)          7271,917                3                       2 353 592       13 403
00003.M2TS      4113 (0x1011)   0x1B            AVC                                     104,125                 7 269                   94 607 539      515 626
00003.M2TS      4352 (0x1100)   0x80            LPCM            eng (English)           104,125                 1 533                   19 950 944      124 176
<---- END FORUMS PASTE ---->
QUICK SUMMARY:
Disc Title: ACCEPT_BD
Disc Size: 23 546 510 332 bytes
Protection: AACS
BD-Java: No
Playlist: 00002.MPLS
Size: 21 025 038 336 bytes
Length: 2:02:56.250
Total Bitrate: 22,80 Mbps
Video: MPEG-4 AVC Video / 16863 kbps / 1080p / 24 fps / 16:9 / High Profile 4.1
Audio: English / LPCM Audio / 2.0 / 48 kHz / 1536 kbps / 16-bit
Audio: English / DTS-HD Master Audio / 5.1 / 48 kHz / 2925 kbps / 16-bit (DTS Core: 5.1 / 48 kHz / 1509 kbps / 16-bit)
Subtitle: Japanese / 2,553 kbps
********************
PLAYLIST: 00003.MPLS
********************
<--- BEGIN FORUMS PASTE --->
Total   Video
Title                                                           Codec   Length  Movie Size      Disc Size       Bitrate Bitrate Main Audio Track                          Secondary Audio Track
-----                                                           ------  ------- --------------  --------------  ------- ------- ------------------                        ---------------------
00003.MPLS                                                      AVC     0:08:49 1 108 469 760   23 546 510 332  16,75   14,00   LPCM 2.0 1536Kbps (48kHz/16-bit)
DISC INFO:
Disc Title:     ACCEPT_BD
Disc Size:      23 546 510 332 bytes
Protection:     AACS
BD-Java:        No
BDInfo:         0.5.8
PLAYLIST REPORT:
Name:                   00003.MPLS
Length:                 0:08:49.500 (h:m:s.ms)
Size:                   1 108 469 760 bytes
Total Bitrate:          16,75 Mbps
VIDEO:
Codec                   Bitrate             Description
-----                   -------             -----------
MPEG-4 AVC Video        14000 kbps          1080p / 24 fps / 16:9 / High Profile 4.1
AUDIO:
Codec                           Language        Bitrate         Description
-----                           --------        -------         -----------
LPCM Audio                      English         1536 kbps       2.0 / 48 kHz / 1536 kbps / 16-bit
SUBTITLES:
Codec                           Language        Bitrate         Description
-----                           --------        -------         -----------
Presentation Graphics           Japanese        208,113 kbps
FILES:
Name            Time In         Length          Size            Total Bitrate
----            -------         ------          ----            -------------
00004.M2TS      0:00:00.000     0:08:49.500     1 108 469 760   16 747
CHAPTERS:
Number          Time In         Length          Avg Video Rate  Max 1-Sec Rate  Max 1-Sec Time  Max 5-Sec Rate  Max 5-Sec Time  Max 10Sec Rate  Max 10Sec Time  Avg Frame Size  Max Frame Size  Max Frame Time
------          -------         ------          --------------  --------------  --------------  --------------  --------------  --------------  --------------  --------------  --------------  --------------
1               0:00:00.000     0:08:49.500     14 000 kbps     41 310 kbps     00:02:24.249    32 423 kbps     00:07:02.875    26 423 kbps     00:00:39.999    72 918 bytes    470 625 bytes   00:02:24.791
STREAM DIAGNOSTICS:
File            PID             Type            Codec           Language                Seconds                 Bitrate                 Bytes           Packets
----            ---             ----            -----           --------                --------------          --------------          -------------   -----
00004.M2TS      4113 (0x1011)   0x1B            AVC                                     529,417                 14 002                  926 640 036     5 043 461
00004.M2TS      4352 (0x1100)   0x80            LPCM            eng (English)           529,417                 1 543                   102 091 456     635 424
00004.M2TS      4608 (0x1200)   0x90            PGS             jpn (Japanese)          529,417                 208                     13 774 478      76 636
<---- END FORUMS PASTE ---->
QUICK SUMMARY:
Disc Title: ACCEPT_BD
Disc Size: 23 546 510 332 bytes
Protection: AACS
BD-Java: No
Playlist: 00003.MPLS
Size: 1 108 469 760 bytes
Length: 0:08:49.500
Total Bitrate: 16,75 Mbps
Video: MPEG-4 AVC Video / 14000 kbps / 1080p / 24 fps / 16:9 / High Profile 4.1
Audio: English / LPCM Audio / 2.0 / 48 kHz / 1536 kbps / 16-bit
Subtitle: Japanese / 208,113 kbps
********************
PLAYLIST: 00004.MPLS
********************
<--- BEGIN FORUMS PASTE --->
Total   Video
Title                                                           Codec   Length  Movie Size      Disc Size       Bitrate Bitrate Main Audio Track                          Secondary Audio Track
-----                                                           ------  ------- --------------  --------------  ------- ------- ------------------                        ---------------------
00004.MPLS                                                      AVC     0:08:23 1 066 874 880   23 546 510 332  16,96   14,00   LPCM 2.0 1536Kbps (48kHz/16-bit)
DISC INFO:
Disc Title:     ACCEPT_BD
Disc Size:      23 546 510 332 bytes
Protection:     AACS
BD-Java:        No
BDInfo:         0.5.8
PLAYLIST REPORT:
Name:                   00004.MPLS
Length:                 0:08:23.375 (h:m:s.ms)
Size:                   1 066 874 880 bytes
Total Bitrate:          16,96 Mbps
VIDEO:
Codec                   Bitrate             Description
-----                   -------             -----------
MPEG-4 AVC Video        14000 kbps          1080p / 24 fps / 16:9 / High Profile 4.1
AUDIO:
Codec                           Language        Bitrate         Description
-----                           --------        -------         -----------
LPCM Audio                      English         1536 kbps       2.0 / 48 kHz / 1536 kbps / 16-bit
SUBTITLES:
Codec                           Language        Bitrate         Description
-----                           --------        -------         -----------
Presentation Graphics           Japanese        403,761 kbps
FILES:
Name            Time In         Length          Size            Total Bitrate
----            -------         ------          ----            -------------
00005.M2TS      0:00:00.000     0:08:23.375     1 066 874 880   16 956
CHAPTERS:
Number          Time In         Length          Avg Video Rate  Max 1-Sec Rate  Max 1-Sec Time  Max 5-Sec Rate  Max 5-Sec Time  Max 10Sec Rate  Max 10Sec Time  Avg Frame Size  Max Frame Size  Max Frame Time
------          -------         ------          --------------  --------------  --------------  --------------  --------------  --------------  --------------  --------------  --------------  --------------
1               0:00:00.000     0:08:23.375     14 000 kbps     47 262 kbps     00:00:08.791    38 002 kbps     00:00:04.874    33 549 kbps     00:06:49.874    72 918 bytes    479 288 bytes   00:00:09.500
STREAM DIAGNOSTICS:
File            PID             Type            Codec           Language                Seconds                 Bitrate                 Bytes           Packets
----            ---             ----            -----           --------                --------------          --------------          -------------   -----
00005.M2TS      4113 (0x1011)   0x1B            AVC                                     503,292                 14 003                  880 919 227     4 794 697
00005.M2TS      4352 (0x1100)   0x80            LPCM            eng (English)           503,292                 1 543                   97 047 808      604 032
00005.M2TS      4608 (0x1200)   0x90            PGS             jpn (Japanese)          503,292                 404                     25 405 389      141 044
<---- END FORUMS PASTE ---->
QUICK SUMMARY:
Disc Title: ACCEPT_BD
Disc Size: 23 546 510 332 bytes
Protection: AACS
BD-Java: No
Playlist: 00004.MPLS
Size: 1 066 874 880 bytes
Length: 0:08:23.375
Total Bitrate: 16,96 Mbps
Video: MPEG-4 AVC Video / 14000 kbps / 1080p / 24 fps / 16:9 / High Profile 4.1
Audio: English / LPCM Audio / 2.0 / 48 kHz / 1536 kbps / 16-bit
Subtitle: Japanese / 403,761 kbps
********************
PLAYLIST: 00005.MPLS
********************
<--- BEGIN FORUMS PASTE --->
Total   Video
Title                                                           Codec   Length  Movie Size      Disc Size       Bitrate Bitrate Main Audio Track                          Secondary Audio Track
-----                                                           ------  ------- --------------  --------------  ------- ------- ------------------                        ---------------------
00005.MPLS                                                      AVC     0:00:41 104 435 712     23 546 510 332  19,99   16,97   LPCM 2.0 1536Kbps (48kHz/16-bit)
DISC INFO:
Disc Title:     ACCEPT_BD
Disc Size:      23 546 510 332 bytes
Protection:     AACS
BD-Java:        No
BDInfo:         0.5.8
PLAYLIST REPORT:
Name:                   00005.MPLS
Length:                 0:00:41.791 (h:m:s.ms)
Size:                   104 435 712 bytes
Total Bitrate:          19,99 Mbps
VIDEO:
Codec                   Bitrate             Description
-----                   -------             -----------
MPEG-4 AVC Video        16968 kbps          1080p / 24 fps / 16:9 / High Profile 4.1
AUDIO:
Codec                           Language        Bitrate         Description
-----                           --------        -------         -----------
LPCM Audio                      English         1536 kbps       2.0 / 48 kHz / 1536 kbps / 16-bit
SUBTITLES:
Codec                           Language        Bitrate         Description
-----                           --------        -------         -----------
Interactive Graphics            Japanese        349,050 kbps
FILES:
Name            Time In         Length          Size            Total Bitrate
----            -------         ------          ----            -------------
00006.M2TS      0:00:00.000     0:00:41.791     104 435 712     19 992
CHAPTERS:
Number          Time In         Length          Avg Video Rate  Max 1-Sec Rate  Max 1-Sec Time  Max 5-Sec Rate  Max 5-Sec Time  Max 10Sec Rate  Max 10Sec Time  Avg Frame Size  Max Frame Size  Max Frame Time
------          -------         ------          --------------  --------------  --------------  --------------  --------------  --------------  --------------  --------------  --------------  --------------
1               0:00:00.000     0:00:41.791     16 968 kbps     56 563 kbps     00:00:14.666    27 271 kbps     00:00:10.916    21 456 kbps     00:00:06.124    88 377 bytes    499 766 bytes   00:00:15.041
STREAM DIAGNOSTICS:
File            PID             Type            Codec           Language                Seconds                 Bitrate                 Bytes           Packets
----            ---             ----            -----           --------                --------------          --------------          -------------   -----
00006.M2TS      4113 (0x1011)   0x1B            AVC                                     41,667                  17 019                  88 641 665      482 350
00006.M2TS      4352 (0x1100)   0x80            LPCM            eng (English)           41,667                  1 547                   8 058 076       50 154
00006.M2TS      5120 (0x1400)   0x91            IGS             jpn (Japanese)          41,667                  350                     1 823 424       9 999
<---- END FORUMS PASTE ---->
QUICK SUMMARY:
Disc Title: ACCEPT_BD
Disc Size: 23 546 510 332 bytes
Protection: AACS
BD-Java: No
Playlist: 00005.MPLS
Size: 104 435 712 bytes
Length: 0:00:41.791
Total Bitrate: 19,99 Mbps
Video: MPEG-4 AVC Video / 16968 kbps / 1080p / 24 fps / 16:9 / High Profile 4.1
Audio: English / LPCM Audio / 2.0 / 48 kHz / 1536 kbps / 16-bit
Subtitle: Japanese / 349,050 kbps
********************
PLAYLIST: 00000.MPLS
********************
<--- BEGIN FORUMS PASTE --->
Total   Video
Title                                                           Codec   Length  Movie Size      Disc Size       Bitrate Bitrate Main Audio Track                          Secondary Audio Track
-----                                                           ------  ------- --------------  --------------  ------- ------- ------------------                        ---------------------
00000.MPLS                                                      MPEG-2  0:00:36 127 107 072     23 546 510 332  27,60   24,61   LPCM 2.0 1536Kbps (48kHz/16-bit)
DISC INFO:
Disc Title:     ACCEPT_BD
Disc Size:      23 546 510 332 bytes
Protection:     AACS
BD-Java:        No
BDInfo:         0.5.8
PLAYLIST REPORT:
Name:                   00000.MPLS
Length:                 0:00:36.836 (h:m:s.ms)
Size:                   127 107 072 bytes
Total Bitrate:          27,60 Mbps
VIDEO:
Codec                   Bitrate             Description
-----                   -------             -----------
MPEG-2 Video            24612 kbps          1080i / 29,970 fps / 16:9
AUDIO:
Codec                           Language        Bitrate         Description
-----                           --------        -------         -----------
LPCM Audio                      English         1536 kbps       2.0 / 48 kHz / 1536 kbps / 16-bit
FILES:
Name            Time In         Length          Size            Total Bitrate
----            -------         ------          ----            -------------
00000.M2TS      0:00:00.000     0:00:36.836     127 107 072     27 604
CHAPTERS:
Number          Time In         Length          Avg Video Rate  Max 1-Sec Rate  Max 1-Sec Time  Max 5-Sec Rate  Max 5-Sec Time  Max 10Sec Rate  Max 10Sec Time  Avg Frame Size  Max Frame Size  Max Frame Time
------          -------         ------          --------------  --------------  --------------  --------------  --------------  --------------  --------------  --------------  --------------  --------------
1               0:00:00.000     0:00:36.836     24 612 kbps     35 120 kbps     00:00:01.000    27 423 kbps     00:00:00.500    26 488 kbps     00:00:12.112    102 651 bytes   544 464 bytes   00:00:02.502
STREAM DIAGNOSTICS:
File            PID             Type            Codec           Language                Seconds                 Bitrate                 Bytes           Packets
----            ---             ----            -----           --------                --------------          --------------          -------------   -----
00000.M2TS      4113 (0x1011)   0x02            MPEG-2                                  36,737                  24 679                  113 327 039     616 552
00000.M2TS      4352 (0x1100)   0x80            LPCM            eng (English)           36,737                  1 547                   7 102 752       44 208
<---- END FORUMS PASTE ---->
QUICK SUMMARY:
Disc Title: ACCEPT_BD
Disc Size: 23 546 510 332 bytes
Protection: AACS
BD-Java: No
Playlist: 00000.MPLS
Size: 127 107 072 bytes
Length: 0:00:36.836
Total Bitrate: 27,60 Mbps
Video: MPEG-2 Video / 24612 kbps / 1080i / 29,970 fps / 16:9
Audio: English / LPCM Audio / 2.0 / 48 kHz / 1536 kbps / 16-bit
********************
PLAYLIST: 00001.MPLS
********************
<--- BEGIN FORUMS PASTE --->
Total   Video
Title                                                           Codec   Length  Movie Size      Disc Size       Bitrate Bitrate Main Audio Track                          Secondary Audio Track
-----                                                           ------  ------- --------------  --------------  ------- ------- ------------------                        ---------------------
00001.MPLS                                                      MPEG-2  0:00:23 112 416 768     23 546 510 332  38,50   35,06   LPCM 2.0 1536Kbps (48kHz/16-bit)
DISC INFO:
Disc Title:     ACCEPT_BD
Disc Size:      23 546 510 332 bytes
Protection:     AACS
BD-Java:        No
BDInfo:         0.5.8
PLAYLIST REPORT:
Name:                   00001.MPLS
Length:                 0:00:23.356 (h:m:s.ms)
Size:                   112 416 768 bytes
Total Bitrate:          38,50 Mbps
VIDEO:
Codec                   Bitrate             Description
-----                   -------             -----------
MPEG-2 Video            35059 kbps          1080i / 29,970 fps / 16:9
AUDIO:
Codec                           Language        Bitrate         Description
-----                           --------        -------         -----------
LPCM Audio                      Japanese        1536 kbps       2.0 / 48 kHz / 1536 kbps / 16-bit
FILES:
Name            Time In         Length          Size            Total Bitrate
----            -------         ------          ----            -------------
00001.M2TS      0:00:00.000     0:00:23.356     112 416 768     38 504
CHAPTERS:
Number          Time In         Length          Avg Video Rate  Max 1-Sec Rate  Max 1-Sec Time  Max 5-Sec Rate  Max 5-Sec Time  Max 10Sec Rate  Max 10Sec Time  Avg Frame Size  Max Frame Size  Max Frame Time
------          -------         ------          --------------  --------------  --------------  --------------  --------------  --------------  --------------  --------------  --------------  --------------
1               0:00:00.000     0:00:23.356     35 059 kbps     35 332 kbps     00:00:12.512    35 177 kbps     00:00:11.511    35 157 kbps     00:00:08.508    146 227 bytes   170 831 bytes   00:00:18.518
STREAM DIAGNOSTICS:
File            PID             Type            Codec           Language                Seconds                 Bitrate                 Bytes           Packets
----            ---             ----            -----           --------                --------------          --------------          -------------   -----
00001.M2TS      4113 (0x1011)   0x02            MPEG-2                                  23,323                  35 109                  102 358 556     556 658
00001.M2TS      4352 (0x1100)   0x80            LPCM            jpn (Japanese)          23,323                  1 545                   4 503 808       28 032
<---- END FORUMS PASTE ---->
QUICK SUMMARY:
Disc Title: ACCEPT_BD
Disc Size: 23 546 510 332 bytes
Protection: AACS
BD-Java: No
Playlist: 00001.MPLS
Size: 112 416 768 bytes
Length: 0:00:23.356
Total Bitrate: 38,50 Mbps
Video: MPEG-2 Video / 35059 kbps / 1080i / 29,970 fps / 16:9
Audio: Japanese / LPCM Audio / 2.0 / 48 kHz / 1536 kbps / 16-bit
[Профиль] [ЛС]
Кто просматривает тему:

Показать сообщения:    

Текущее время: Сегодня 07:46

Часовой пояс: GMT



Вы не можете начинать темы
Вы не можете отвечать на сообщения
Вы не можете редактировать свои сообщения
Вы не можете удалять свои сообщения
Вы не можете голосовать в опросах
Вы не можете прикреплять файлы к сообщениям
Вы не можете скачивать файлы