(Heavy Metal) Accept - Russian Roulette - 1986 [FLAC, image+.cue, lossless]

 
Автор Сообщение

sergej644 ®

Пол:

Стаж: 4 года 11 месяцев

Сообщений: 6043

Откуда: Soviet Union



Награды: Нет

Торрент-статистика

Создавать темы 11-Июн-2015 15:31

[Цитировать]

-Accept / Russian Roulette-- Год издания: 1986
Страна: Germany
Жанр: Heavy Metal
Продолжительность: 00:43:22-Лейбл издания: Portrait
Страна-выпуска диска: USA
Номер по каталогу: RK 40354
Формат: FLAC
Битрейт аудио: lossless
Тип рипа: image+.cue
Наличие сканов в содержимом раздачи: да
--

Трэклист

01.T.V. War (03:28)
02.Monsterman (03:26)
03.Russian Roulette (05:23)
04.It's Hard to Find a Way (04:20)
05.Aiming High (04:28)
06.Heaven Is Hell (07:13)
07.Another Second to Be (03:20)
08.Walking in the Shadow (04:28)
09.Man Enough to Cry (03:15)
10.Stand Tight (04:06)
-

Лог создания рипа

Exact Audio Copy V1.0 beta 6 from 9. April 2015
EAC extraction logfile from 9. June 2015, 11:23
Accept / Russian Roulette
Used drive  : ASUS    DRW-24F1ST   Adapter: 3  ID: 1
Read mode               : Secure
Utilize accurate stream : Yes
Defeat audio cache      : No
Make use of C2 pointers : Yes
Read offset correction                      : 6
Overread into Lead-In and Lead-Out          : No
Fill up missing offset samples with silence : Yes
Delete leading and trailing silent blocks   : No
Null samples used in CRC calculations       : Yes
Used interface                              : Installed external ASPI interface
Used output format              : User Defined Encoder
Selected bitrate                : 1024 kBit/s
Quality                         : Low
Add ID3 tag                     : No
Command line compressor         : C:\Program Files (x86)\Exact Audio Copy\FLAC\FLAC.EXE
Additional command line options : -6 -V -T "ARTIST=%artist%" -T "TITLE=%title%" -T "ALBUM=%albumtitle%" -T "DATE=%year%" -T "TRACKNUMBER=%tracknr%" -T "GENRE=%genre%" -T "COMMENT=%comment%" -T "BAND=%albuminterpret%" -T "ALBUMARTIST=%albuminterpret%" -T "COMPOSER=%composer%" %haslyrics%--tag-from-file=LYRICS="%lyricsfile%"%haslyrics% -T "DISCNUMBER=%cdnumber%" -T "TOTALDISCS=%totalcds%" -T "TOTALTRACKS=%numtracks%" %hascover%--picture="%coverfile%"%hascover% %source% -o %dest%
TOC of the extracted CD
     Track |   Start  |  Length  | Start sector | End sector
    ---------------------------------------------------------
        1  |  0:00.00 |  3:27.17 |         0    |    15541
        2  |  3:27.17 |  3:25.45 |     15542    |    30961
        3  |  6:52.62 |  5:22.65 |     30962    |    55176
        4  | 12:15.52 |  4:19.13 |     55177    |    74614
        5  | 16:34.65 |  4:27.22 |     74615    |    94661
        6  | 21:02.12 |  7:12.58 |     94662    |   127119
        7  | 28:14.70 |  3:19.30 |    127120    |   142074
        8  | 31:34.25 |  4:27.37 |    142075    |   162136
        9  | 36:01.62 |  3:14.13 |    162137    |   176699
       10  | 39:16.00 |  4:05.62 |    176700    |   195136
Range status and errors
Selected range
     Filename I:\V\Accept - Russian Roulette.wav
     Peak level 85.7 %
     Extraction speed 8.3 X
     Range quality 100.0 %
     Test CRC 15B4F51C
     Copy CRC 15B4F51C
     Copy OK
No errors occurred
AccurateRip summary
Track  1  accurately ripped (confidence 1)  [1C1C8533]  (AR v1)
Track  2  accurately ripped (confidence 1)  [131AB327]  (AR v1)
Track  3  accurately ripped (confidence 1)  [30860591]  (AR v1)
Track  4  accurately ripped (confidence 1)  [F3E1DCBB]  (AR v1)
Track  5  accurately ripped (confidence 1)  [EADC512C]  (AR v1)
Track  6  accurately ripped (confidence 1)  [24498DA4]  (AR v1)
Track  7  accurately ripped (confidence 1)  [65846677]  (AR v1)
Track  8  accurately ripped (confidence 1)  [BBCCA2CC]  (AR v1)
Track  9  accurately ripped (confidence 1)  [A0B1520A]  (AR v1)
Track 10  accurately ripped (confidence 1)  [D3628C93]  (AR v1)
All tracks accurately ripped
End of status report
---- CUETools DB Plugin V2.1.6
[CTDB TOCID: srtVwh4DaCF_TuF4ow7ApHKdsWc-] found
Submit result: srtVwh4DaCF_TuF4ow7ApHKdsWc- has been confirmed
Track | CTDB Status
  1   | (1/2) Accurately ripped
  2   | (1/2) Accurately ripped
  3   | (1/2) Accurately ripped
  4   | (1/2) Accurately ripped
  5   | (1/2) Accurately ripped
  6   | (1/2) Accurately ripped
  7   | (1/2) Accurately ripped
  8   | (1/2) Accurately ripped
  9   | (1/2) Accurately ripped
10   | (2/2) Accurately ripped
==== Log checksum F8581E70C45D47D9850A2E7BA2612324D311FBBFB05413FF1F0E4700729B0D06 ====
------------------------------------------------------------
Exact Audio Copy V1.0 beta 6 from 9. April 2015
EAC extraction logfile from 9. June 2015, 11:23
Accept / Russian Roulette
Used drive  : ASUS    DRW-24F1ST   Adapter: 3  ID: 1
Read mode               : Secure
Utilize accurate stream : Yes
Defeat audio cache      : No
Make use of C2 pointers : Yes
Read offset correction                      : 6
Overread into Lead-In and Lead-Out          : No
Fill up missing offset samples with silence : Yes
Delete leading and trailing silent blocks   : No
Null samples used in CRC calculations       : Yes
Used interface                              : Installed external ASPI interface
Used output format              : User Defined Encoder
Selected bitrate                : 1024 kBit/s
Quality                         : Low
Add ID3 tag                     : No
Command line compressor         : C:\Program Files (x86)\Exact Audio Copy\FLAC\FLAC.EXE
Additional command line options : -6 -V -T "ARTIST=%artist%" -T "TITLE=%title%" -T "ALBUM=%albumtitle%" -T "DATE=%year%" -T "TRACKNUMBER=%tracknr%" -T "GENRE=%genre%" -T "COMMENT=%comment%" -T "BAND=%albuminterpret%" -T "ALBUMARTIST=%albuminterpret%" -T "COMPOSER=%composer%" %haslyrics%--tag-from-file=LYRICS="%lyricsfile%"%haslyrics% -T "DISCNUMBER=%cdnumber%" -T "TOTALDISCS=%totalcds%" -T "TOTALTRACKS=%numtracks%" %hascover%--picture="%coverfile%"%hascover% %source% -o %dest%
TOC of the extracted CD
     Track |   Start  |  Length  | Start sector | End sector
    ---------------------------------------------------------
        1  |  0:00.00 |  3:27.17 |         0    |    15541
        2  |  3:27.17 |  3:25.45 |     15542    |    30961
        3  |  6:52.62 |  5:22.65 |     30962    |    55176
        4  | 12:15.52 |  4:19.13 |     55177    |    74614
        5  | 16:34.65 |  4:27.22 |     74615    |    94661
        6  | 21:02.12 |  7:12.58 |     94662    |   127119
        7  | 28:14.70 |  3:19.30 |    127120    |   142074
        8  | 31:34.25 |  4:27.37 |    142075    |   162136
        9  | 36:01.62 |  3:14.13 |    162137    |   176699
       10  | 39:16.00 |  4:05.62 |    176700    |   195136
Range status and errors
Selected range
     Filename I:\V\Accept - Russian Roulette.wav
     Peak level 85.7 %
     Extraction speed 8.3 X
     Range quality 100.0 %
     Test CRC 15B4F51C
     Copy CRC 15B4F51C
     Copy OK
No errors occurred
AccurateRip summary
Track  1  accurately ripped (confidence 1)  [1C1C8533]  (AR v1)
Track  2  accurately ripped (confidence 1)  [131AB327]  (AR v1)
Track  3  accurately ripped (confidence 1)  [30860591]  (AR v1)
Track  4  accurately ripped (confidence 1)  [F3E1DCBB]  (AR v1)
Track  5  accurately ripped (confidence 1)  [EADC512C]  (AR v1)
Track  6  accurately ripped (confidence 1)  [24498DA4]  (AR v1)
Track  7  accurately ripped (confidence 1)  [65846677]  (AR v1)
Track  8  accurately ripped (confidence 1)  [BBCCA2CC]  (AR v1)
Track  9  accurately ripped (confidence 1)  [A0B1520A]  (AR v1)
Track 10  accurately ripped (confidence 1)  [D3628C93]  (AR v1)
All tracks accurately ripped
End of status report
---- CUETools DB Plugin V2.1.6
[CTDB TOCID: srtVwh4DaCF_TuF4ow7ApHKdsWc-] found
Submit result: srtVwh4DaCF_TuF4ow7ApHKdsWc- has been confirmed
Track | CTDB Status
  1   | (1/2) Accurately ripped
  2   | (1/2) Accurately ripped
  3   | (1/2) Accurately ripped
  4   | (1/2) Accurately ripped
  5   | (1/2) Accurately ripped
  6   | (1/2) Accurately ripped
  7   | (1/2) Accurately ripped
  8   | (1/2) Accurately ripped
  9   | (1/2) Accurately ripped
10   | (2/2) Accurately ripped

Индексная карта (non-compilant .cue)

REM GENRE "Heavy Metal"
REM DATE 1986
REM DISCID 980A290A
REM COMMENT "ExactAudioCopy v1.0b6"
PERFORMER "Accept"
TITLE "Russian Roulette"
FILE "Accept - Russian Roulette.flac" WAVE
  TRACK 01 AUDIO
    TITLE "T.V. War"
    PERFORMER "Accept"
    INDEX 01 00:00:00
  TRACK 02 AUDIO
    TITLE "Monsterman"
    PERFORMER "Accept"
    INDEX 00 03:27:12
    INDEX 01 03:27:17
  TRACK 03 AUDIO
    TITLE "Russian Roulette"
    PERFORMER "Accept"
    INDEX 00 06:52:12
    INDEX 01 06:52:62
  TRACK 04 AUDIO
    TITLE "It's Hard to Find a Way"
    PERFORMER "Accept"
    INDEX 01 12:15:52
  TRACK 05 AUDIO
    TITLE "Aiming High"
    PERFORMER "Accept"
    INDEX 01 16:34:65
  TRACK 06 AUDIO
    TITLE "Heaven Is Hell"
    PERFORMER "Accept"
    INDEX 00 21:01:62
    INDEX 01 21:02:12
  TRACK 07 AUDIO
    TITLE "Another Second to Be"
    PERFORMER "Accept"
    INDEX 01 28:14:70
  TRACK 08 AUDIO
    TITLE "Walking in the Shadow"
    PERFORMER "Accept"
    INDEX 00 31:32:60
    INDEX 01 31:34:25
  TRACK 09 AUDIO
    TITLE "Man Enough to Cry"
    PERFORMER "Accept"
    INDEX 01 36:01:62
  TRACK 10 AUDIO
    TITLE "Stand Tight"
    PERFORMER "Accept"
    INDEX 00 39:15:62
    INDEX 01 39:16:00

Скриншот спектра частот

--Не забываем говорить
[Профиль] [ЛС]
Показать сообщения:    

Текущее время: Сегодня 10:54

Часовой пояс: GMT



Вы не можете начинать темы
Вы не можете отвечать на сообщения
Вы не можете редактировать свои сообщения
Вы не можете удалять свои сообщения
Вы не можете голосовать в опросах
Вы не можете прикреплять файлы к сообщениям
Вы не можете скачивать файлы