(Heavy Metal) Accept - Restless And Live (Blind Rage - Live In Europe 2015) (2CD) - 2017 [FLAC, image +.cue, lossless]

 
Автор Сообщение

sergej644 ®

Пол:

Стаж: 5 лет 8 месяцев

Сообщений: 6149

Откуда: Soviet Union



Награды: 9 (Подробнее)

Top Seeder 3 (Количество: 1) Top Seeder 5 (Количество: 1) Top Seeder 4 (Количество: 1)
Торрент-статистика

Создавать темы 17-Янв-2017 07:38

[Цитировать]

-Accept - Restless And Live (Blind Rage - Live In Europe 2015) (2CD)--
Год издания: 2017
Страна: Germany
Жанр: Heavy Metal
Продолжительность: 02:25:00-Лейбл издания: Nuclear Blast Records
Страна-выпуска диска: Germany
Номер по каталогу: 27361 31674-Формат: FLAC (*.flac)
Битрейт аудио: Lossless
Тип рипа: image +.cue
Наличие сканов в содержимом раздачи: да
-

Трэклист

CD 1 | 01:14:02


01. Stampede (5:54)
02. Stalingrad (6:03)
03. Hellfire (5:35)
04. London Leatherboys (4:32)
05. Living For Tonite (3:40)
06. 200 Years (4:34)
07. Demons Night (4:49)
08. Dying Breed (6:26)
09. Final Journey (5:17)
10. From The Ashes We Rise (5:52)
11. Losers And Winners (4:21)
12. No Shelter (7:25)
13. Shadow Soldiers (6:09)
14. Midnight Mover (3:26)

CD 2 | 01:10:58


01. Starlight (3:53)
02. Restless And Wild (4:29)
03. Son Of A Bitch (2:59)
04. Pandemic (6:17)
05. Dark Side Of My Heart (4:47)
06. The Curse (6:10)
07. Flash Rockin' Man (4:23)
08. Bulletproof (5:58)
09. Fall Of The Empire (5:40)
10. Fast As A Shark (4:36)
11. Metal Heart (6:44)
12. Teutonic Terror (5:16)
13. Balls To The Wall (9:46)
-

Лог создания рипа

CD 1

Exact Audio Copy V1.3 from 2. September 2016
EAC extraction logfile from 13. January 2017, 20:18
Accept / Restless And Live (CD1)
Used drive  : ATAPI   iHAS122   W   Adapter: 2  ID: 0
Read mode               : Secure
Utilize accurate stream : Yes
Defeat audio cache      : Yes
Make use of C2 pointers : No
Read offset correction                      : 48
Overread into Lead-In and Lead-Out          : No
Fill up missing offset samples with silence : Yes
Delete leading and trailing silent blocks   : No
Null samples used in CRC calculations       : Yes
Used interface                              : Installed external ASPI interface
Used output format              : User Defined Encoder
Selected bitrate                : 1024 kBit/s
Quality                         : High
Add ID3 tag                     : Yes
Command line compressor         : C:\Program Files\FLAC\flac.exe
Additional command line options : -V -8 -T "Date=%year%" -T "Genre=%genre%" -T"COMMENT=Ripped by  Ilijan" -8 -V %source%
TOC of the extracted CD
     Track |   Start  |  Length  | Start sector | End sector
    ---------------------------------------------------------
        1  |  0:00.00 |  5:53.62 |         0    |    26536
        2  |  5:53.62 |  6:02.60 |     26537    |    53746
        3  | 11:56.47 |  5:34.74 |     53747    |    78870
        4  | 17:31.46 |  4:32.16 |     78871    |    99286
        5  | 22:03.62 |  3:40.20 |     99287    |   115806
        6  | 25:44.07 |  4:33.74 |    115807    |   136355
        7  | 30:18.06 |  4:49.21 |    136356    |   158051
        8  | 35:07.27 |  6:26.02 |    158052    |   187003
        9  | 41:33.29 |  5:17.02 |    187004    |   210780
       10  | 46:50.31 |  5:51.66 |    210781    |   237171
       11  | 52:42.22 |  4:20.60 |    237172    |   256731
       12  | 57:03.07 |  7:24.52 |    256732    |   290083
       13  | 64:27.59 |  6:08.38 |    290084    |   317721
       14  | 70:36.22 |  3:25.52 |    317722    |   333148
Range status and errors
Selected range
     Filename D:\ilко\Accept - Restless And Live (CD1).wav
     Peak level 100.0 %
     Extraction speed 4.2 X
     Range quality 100.0 %
     Test CRC 3D7F74FC
     Copy CRC 3D7F74FC
     Copy OK
No errors occurred
AccurateRip summary
Track  1  not present in database
Track  2  not present in database
Track  3  not present in database
Track  4  not present in database
Track  5  not present in database
Track  6  not present in database
Track  7  not present in database
Track  8  not present in database
Track  9  not present in database
Track 10  not present in database
Track 11  not present in database
Track 12  not present in database
Track 13  not present in database
Track 14  not present in database
None of the tracks are present in the AccurateRip database
End of status report
---- CUETools DB Plugin V2.1.6
[CTDB TOCID: 0ub.4XsPbrgqtbc2uhiM_vy6QCI-] found
Submit result: 0ub.4XsPbrgqtbc2uhiM_vy6QCI- has been confirmed
Track | CTDB Status
  1   | (1/1) Accurately ripped
  2   | (1/1) Accurately ripped
  3   | (1/1) Accurately ripped
  4   | (1/1) Accurately ripped
  5   | (1/1) Accurately ripped
  6   | (1/1) Accurately ripped
  7   | (1/1) Accurately ripped
  8   | (1/1) Accurately ripped
  9   | (1/1) Accurately ripped
10   | (1/1) Accurately ripped
11   | (1/1) Accurately ripped
12   | (1/1) Accurately ripped
13   | (1/1) Accurately ripped
14   | (1/1) Accurately ripped

CD 2

Exact Audio Copy V1.3 from 2. September 2016
EAC extraction logfile from 13. January 2017, 20:58
Accept / Restless And Live (CD2)
Used drive  : ATAPI   iHAS122   W   Adapter: 2  ID: 0
Read mode               : Secure
Utilize accurate stream : Yes
Defeat audio cache      : Yes
Make use of C2 pointers : No
Read offset correction                      : 48
Overread into Lead-In and Lead-Out          : No
Fill up missing offset samples with silence : Yes
Delete leading and trailing silent blocks   : No
Null samples used in CRC calculations       : Yes
Used interface                              : Installed external ASPI interface
Used output format              : User Defined Encoder
Selected bitrate                : 1024 kBit/s
Quality                         : High
Add ID3 tag                     : Yes
Command line compressor         : C:\Program Files\FLAC\flac.exe
Additional command line options : -V -8 -T "Date=%year%" -T "Genre=%genre%" -T"COMMENT=Ripped by  Ilijan" -8 -V %source%
TOC of the extracted CD
     Track |   Start  |  Length  | Start sector | End sector
    ---------------------------------------------------------
        1  |  0:00.00 |  3:52.54 |         0    |    17453
        2  |  3:52.54 |  4:28.43 |     17454    |    37596
        3  |  8:21.22 |  2:59.13 |     37597    |    51034
        4  | 11:20.35 |  6:17.11 |     51035    |    79320
        5  | 17:37.46 |  4:46.73 |     79321    |   100843
        6  | 22:24.44 |  6:09.54 |    100844    |   128572
        7  | 28:34.23 |  4:23.13 |    128573    |   148310
        8  | 32:57.36 |  5:58.24 |    148311    |   175184
        9  | 38:55.60 |  5:40.03 |    175185    |   200687
       10  | 44:35.63 |  4:36.17 |    200688    |   221404
       11  | 49:12.05 |  6:44.25 |    221405    |   251729
       12  | 55:56.30 |  5:16.08 |    251730    |   275437
       13  | 61:12.38 |  9:45.74 |    275438    |   319386
Range status and errors
Selected range
     Filename D:\ilко\Accept - Restless And Live (CD2).wav
     Peak level 100.0 %
     Extraction speed 4.4 X
     Range quality 100.0 %
     Test CRC 4C4F6DD2
     Copy CRC 4C4F6DD2
     Copy OK
No errors occurred
AccurateRip summary
Track  1  not present in database
Track  2  not present in database
Track  3  not present in database
Track  4  not present in database
Track  5  not present in database
Track  6  not present in database
Track  7  not present in database
Track  8  not present in database
Track  9  not present in database
Track 10  not present in database
Track 11  not present in database
Track 12  not present in database
Track 13  not present in database
None of the tracks are present in the AccurateRip database
End of status report
---- CUETools DB Plugin V2.1.6
[CTDB TOCID: DWakYGjujLxPSLnqHrJBHi.HadA-] found
Submit result: DWakYGjujLxPSLnqHrJBHi.HadA- has been confirmed
Track | CTDB Status
  1   | (1/1) Accurately ripped
  2   | (1/1) Accurately ripped
  3   | (1/1) Accurately ripped
  4   | (1/1) Accurately ripped
  5   | (1/1) Accurately ripped
  6   | (1/1) Accurately ripped
  7   | (1/1) Accurately ripped
  8   | (1/1) Accurately ripped
  9   | (1/1) Accurately ripped
10   | (1/1) Accurately ripped
11   | (1/1) Accurately ripped
12   | (1/1) Accurately ripped
13   | (1/1) Accurately ripped

Индексная карта (non-compilant .cue)

CD 1

REM GENRE "Heavy Metal"
REM DATE 2016
REM DISCID C211590E
REM COMMENT "ExactAudioCopy v1.3"
PERFORMER "Accept"
TITLE "Restless And Live (CD1)"
FILE "Accept - Restless And Live (CD1).flac" WAVE
  TRACK 01 AUDIO
    TITLE "Stampede"
    PERFORMER "Accept"
    INDEX 01 00:00:00
  TRACK 02 AUDIO
    TITLE "Stalingrad"
    PERFORMER "Accept"
    INDEX 01 05:53:62
  TRACK 03 AUDIO
    TITLE "Hellfire"
    PERFORMER "Accept"
    INDEX 01 11:56:47
  TRACK 04 AUDIO
    TITLE "London Leatherboys"
    PERFORMER "Accept"
    INDEX 01 17:31:46
  TRACK 05 AUDIO
    TITLE "Living For Tonite"
    PERFORMER "Accept"
    INDEX 01 22:03:62
  TRACK 06 AUDIO
    TITLE "200 Years"
    PERFORMER "Accept"
    INDEX 01 25:44:07
  TRACK 07 AUDIO
    TITLE "Demons Night"
    PERFORMER "Accept"
    INDEX 01 30:18:06
  TRACK 08 AUDIO
    TITLE "Dying Breed"
    PERFORMER "Accept"
    INDEX 01 35:07:27
  TRACK 09 AUDIO
    TITLE "Final Journey"
    PERFORMER "Accept"
    INDEX 01 41:33:29
  TRACK 10 AUDIO
    TITLE "From The Ashes We Rise"
    PERFORMER "Accept"
    INDEX 01 46:50:31
  TRACK 11 AUDIO
    TITLE "Losers And Winners"
    PERFORMER "Accept"
    INDEX 01 52:42:22
  TRACK 12 AUDIO
    TITLE "No Shelter"
    PERFORMER "Accept"
    INDEX 01 57:03:07
  TRACK 13 AUDIO
    TITLE "Shadow Soldiers"
    PERFORMER "Accept"
    INDEX 01 64:27:59
  TRACK 14 AUDIO
    TITLE "Midnight Mover"
    PERFORMER "Accept"
    INDEX 01 70:36:22

CD 2

REM GENRE "Heavy Metal"
REM DATE 2017
REM DISCID C910A20D
REM COMMENT "ExactAudioCopy v1.3"
PERFORMER "Accept"
TITLE "Restless And Live (CD2)"
FILE "Accept - Restless And Live (CD2).flac" WAVE
  TRACK 01 AUDIO
    TITLE "Starlight"
    PERFORMER "Accept"
    INDEX 01 00:00:00
  TRACK 02 AUDIO
    TITLE "Restless And Wild"
    PERFORMER "Accept"
    INDEX 01 03:52:54
  TRACK 03 AUDIO
    TITLE "Son Of A Bitch"
    PERFORMER "Accept"
    INDEX 01 08:21:22
  TRACK 04 AUDIO
    TITLE "Pandemic"
    PERFORMER "Accept"
    INDEX 01 11:20:35
  TRACK 05 AUDIO
    TITLE "Dark Side Of My Heart"
    PERFORMER "Accept"
    INDEX 01 17:37:46
  TRACK 06 AUDIO
    TITLE "The Curse"
    PERFORMER "Accept"
    INDEX 01 22:24:44
  TRACK 07 AUDIO
    TITLE "Flash Rockin' Man"
    PERFORMER "Accept"
    INDEX 01 28:34:23
  TRACK 08 AUDIO
    TITLE "Bulletproof"
    PERFORMER "Accept"
    INDEX 01 32:57:36
  TRACK 09 AUDIO
    TITLE "Fall Of The Empire"
    PERFORMER "Accept"
    INDEX 01 38:55:60
  TRACK 10 AUDIO
    TITLE "Fast As A Shark"
    PERFORMER "Accept"
    INDEX 01 44:35:63
  TRACK 11 AUDIO
    TITLE "Metal Heart"
    PERFORMER "Accept"
    INDEX 01 49:12:05
  TRACK 12 AUDIO
    TITLE "Teutonic Terror"
    PERFORMER "Accept"
    INDEX 01 55:56:30
  TRACK 13 AUDIO
    TITLE "Balls To The Wall"
    PERFORMER "Accept"
    INDEX 01 61:12:38
--
[Профиль] [ЛС]
Показать сообщения:    

Текущее время: Сегодня 03:20

Часовой пояс: GMT



Вы не можете начинать темы
Вы не можете отвечать на сообщения
Вы не можете редактировать свои сообщения
Вы не можете удалять свои сообщения
Вы не можете голосовать в опросах
Вы не можете прикреплять файлы к сообщениям
Вы не можете скачивать файлы