(Heavy Metal) Accept - Objection Overruled - 1993 (2015 Remastered) [FLAC, image +.cue, lossless]

 
Автор Сообщение

sergej644 ®

Пол:

Стаж: 4 года 11 месяцев

Сообщений: 6046

Откуда: Soviet Union



Награды: Нет

Торрент-статистика

Создавать темы 27-Янв-2016 09:00

[Цитировать]

-Accept - Objection Overruled - 1993-- Год | Год издания: 1993 | 2015
Страна: Germany
Жанр: Heavy Metal
Продолжительность: 00:47:58-Лейбл издания: Hear No Evil
Страна-выпуска диска: EC
Номер по каталогу: HNECD052-Формат: FLAC
Битрейт аудио: Lossless
Тип рипа: image +.cue
Наличие сканов в содержимом раздачи: да
-

Трэклист


01.Objection Overruled(03:40)
02.I Don't Wanna Be Like You(04:19)
03.Protectors of Terror(04:04)
04.Slaves to Metal(04:38)
05.All Or Nothing(04:32)
06.Bulletproof(05:05)
07.Amamos La Vida(04:40)
08.Sick, Dirty And Mean(04:34)
09.Donation(04:49)
10.Just By My Own(03:30)
11.This One.s For You(04:11)
-

Лог создания рипа

Exact Audio Copy V1.1 from 23. June 2015
EAC extraction logfile from 7. December 2015, 9:49
Accept / Objection Overruled (Remastered)
Used drive  : HL-DT-STDVDRAM GH20NS10   Adapter: 1  ID: 0
Read mode               : Secure
Utilize accurate stream : Yes
Defeat audio cache      : Yes
Make use of C2 pointers : No
Read offset correction                      : 667
Overread into Lead-In and Lead-Out          : No
Fill up missing offset samples with silence : Yes
Delete leading and trailing silent blocks   : No
Null samples used in CRC calculations       : Yes
Used interface                              : Native Win32 interface for Win NT & 2000
Used output format              : User Defined Encoder
Selected bitrate                : 128 kBit/s
Quality                         : High
Add ID3 tag                     : No
Command line compressor         : C:\Program Files (x86)\Exact Audio Copy\FLAC\FLAC.EXE
Additional command line options : -V -8 -T "Date=%year%" -T "Genre=%genre%" %source%
TOC of the extracted CD
     Track |   Start  |  Length  | Start sector | End sector
    ---------------------------------------------------------
        1  |  0:00.00 |  3:39.09 |         0    |    16433
        2  |  3:39.09 |  4:18.71 |     16434    |    35854
        3  |  7:58.05 |  4:03.41 |     35855    |    54120
        4  | 12:01.46 |  4:37.56 |     54121    |    74951
        5  | 16:39.27 |  4:31.48 |     74952    |    95324
        6  | 21:11.00 |  5:04.62 |     95325    |   118186
        7  | 26:15.62 |  4:39.09 |    118187    |   139120
        8  | 30:54.71 |  4:33.48 |    139121    |   159643
        9  | 35:28.44 |  4:48.71 |    159644    |   181314
       10  | 40:17.40 |  3:29.47 |    181315    |   197036
       11  | 43:47.12 |  4:10.30 |    197037    |   215816
Range status and errors
Selected range
     Filename F:\ЕАС\fan24\Accept - Objection Overruled (Remastered).wav
     Peak level 97.7 %
     Extraction speed 3.2 X
     Range quality 100.0 %
     Test CRC 2D882727
     Copy CRC 2D882727
     Copy OK
No errors occurred
AccurateRip summary
Track  1  accurately ripped (confidence 2)  [3C5E0097]  (AR v2)
Track  2  accurately ripped (confidence 2)  [F8054BE4]  (AR v2)
Track  3  accurately ripped (confidence 2)  [AEB03B1E]  (AR v2)
Track  4  accurately ripped (confidence 2)  [1CF5E916]  (AR v2)
Track  5  accurately ripped (confidence 2)  [8F11F1E8]  (AR v2)
Track  6  accurately ripped (confidence 2)  [F83C8B7A]  (AR v2)
Track  7  accurately ripped (confidence 2)  [0C2B9742]  (AR v2)
Track  8  accurately ripped (confidence 2)  [4B047841]  (AR v2)
Track  9  accurately ripped (confidence 3)  [BBB853EC]  (AR v2)
Track 10  accurately ripped (confidence 2)  [23A6EA13]  (AR v2)
Track 11  accurately ripped (confidence 2)  [FACE392A]  (AR v2)
All tracks accurately ripped
End of status report
---- CUETools DB Plugin V2.1.6
[CTDB TOCID: pjWfntpwp0yaZR449nEjYaHv_LY-] found
Submit result: already submitted
Track | CTDB Status
  1   | (5/5) Accurately ripped
  2   | (5/5) Accurately ripped
  3   | (5/5) Accurately ripped
  4   | (5/5) Accurately ripped
  5   | (5/5) Accurately ripped
  6   | (5/5) Accurately ripped
  7   | (5/5) Accurately ripped
  8   | (5/5) Accurately ripped
  9   | (5/5) Accurately ripped
10   | (5/5) Accurately ripped
11   | (5/5) Accurately ripped

Индексная карта (non-compilant .cue)

REM GENRE "Heavy Metal"
REM DATE 1993
REM DISCID 7F0B3D0B
REM COMMENT "ExactAudioCopy v1.1"
PERFORMER "Accept"
TITLE "Objection Overruled (Remastered)"
FILE "Accept - Objection Overruled (Remastered).flac" WAVE
  TRACK 01 AUDIO
    TITLE "Objection Overruled"
    PERFORMER "Accept"
    INDEX 01 00:00:00
  TRACK 02 AUDIO
    TITLE "I Don't Wanna Be Like You"
    PERFORMER "Accept"
    INDEX 01 03:39:09
  TRACK 03 AUDIO
    TITLE "Protectors of Terror"
    PERFORMER "Accept"
    INDEX 01 07:58:05
  TRACK 04 AUDIO
    TITLE "Slaves to Metal"
    PERFORMER "Accept"
    INDEX 01 12:01:46
  TRACK 05 AUDIO
    TITLE "All Or Nothing"
    PERFORMER "Accept"
    INDEX 01 16:39:27
  TRACK 06 AUDIO
    TITLE "Bulletproof"
    PERFORMER "Accept"
    INDEX 01 21:11:00
  TRACK 07 AUDIO
    TITLE "Amamos La Vida"
    PERFORMER "Accept"
    INDEX 01 26:15:62
  TRACK 08 AUDIO
    TITLE "Sick, Dirty And Mean"
    PERFORMER "Accept"
    INDEX 01 30:54:71
  TRACK 09 AUDIO
    TITLE "Donation"
    PERFORMER "Accept"
    INDEX 01 35:28:44
  TRACK 10 AUDIO
    TITLE "Just By My Own"
    PERFORMER "Accept"
    INDEX 01 40:17:40
  TRACK 11 AUDIO
    TITLE "This One.s For You"
    PERFORMER "Accept"
    INDEX 01 43:47:12
--
[Профиль] [ЛС]
Показать сообщения:    

Текущее время: Сегодня 14:07

Часовой пояс: GMT



Вы не можете начинать темы
Вы не можете отвечать на сообщения
Вы не можете редактировать свои сообщения
Вы не можете удалять свои сообщения
Вы не можете голосовать в опросах
Вы не можете прикреплять файлы к сообщениям
Вы не можете скачивать файлы