(Heavy Metal) Accept - Breaker (Remastered 2010, Japan) - 1981 [FLAC, image+.cue, lossless]

 
Автор Сообщение

sergej644 ®

Пол:

Стаж: 4 года 11 месяцев

Сообщений: 6046

Откуда: Soviet Union



Награды: Нет

Торрент-статистика

Создавать темы 11-Июн-2015 13:42

[Цитировать]

-Accept / Breaker (Remastered 2010, Japan)-- Год издания: 1981
Страна: Germany
Жанр: Heavy Metal
Продолжительность: 00:43:57-Лейбл издания: Universal Music LLC
Страна-выпуска диска: Japan
Номер по каталогу: UICY - 94522
Формат: FLAC
Битрейт аудио: lossless
Тип рипа: image+.cue
Наличие сканов в содержимом раздачи: да
--

Трэклист

01.Starlight (03:53)
02.Breaker (03:36)
03.Run If You Can (04:49)
04.Can't Stand The Night (05:24)
05.Son Of A Bitch (03:54)
06.Burning (05:14)
07.Feelings (04:49)
08.Midnight Highway (03:59)
09.Breaking Up Again (04:38)
10.Down And Out (03:45)
--

Лог создания рипа

Exact Audio Copy V1.0 beta 3 from 29. August 2011
Отчёт EAC об извлечении, выполненном 8. июня 2015, 20:58
Accept / Breaker (Remastered)
Дисковод: hp      DVD-RAM UJ8B1   Adapter: 0  ID: 0
Режим чтения                 : Достоверность
Использование точного потока : Да
Отключение кэша аудио        : Да
Использование указателей C2  : Нет
Коррекция смещения при чтении                     : 6
Способность читать области Lead-in и Lead-out     : Нет
Заполнение пропущенных сэмплов тишиной            : Да
Удаление блоков с тишиной в начале и конце        : Нет
При вычислениях CRC использовались нулевые сэмплы : Да
Интерфейс                                         : Встроенный Win32-интерфейс для Win NT/2000
Выходной формат          : Пользовательский кодировщик
Выбранный битрейт        : 128 kBit/s
Качество                 : Высокий
Добавление ID3-тега      : Нет
Утилита сжатия           : C:\Program Files (x86)\Exact Audio Copy\Flac\flac.exe
Дополнительные параметры : -V -8 -T "Date=%year%" -T "Genre=%genre%" %source%
TOC извлечённого CD
     Трек |   Старт  | Длительность | Начальный сектор | Конечный сектор
    ---------------------------------------------------------------------
       1  |  0:00.00 |    3:52.52   |           0      |      17451
       2  |  3:52.52 |    3:35.39   |       17452      |      33615
       3  |  7:28.16 |    4:48.49   |       33616      |      55264
       4  | 12:16.65 |    5:23.45   |       55265      |      79534
       5  | 17:40.35 |    3:53.45   |       79535      |      97054
       6  | 21:34.05 |    5:13.29   |       97055      |     120558
       7  | 26:47.34 |    4:48.45   |      120559      |     142203
       8  | 31:36.04 |    3:58.47   |      142204      |     160100
       9  | 35:34.51 |    4:37.04   |      160101      |     180879
      10  | 40:11.55 |    3:44.33   |      180880      |     197712
Характеристики диапазона извлечения и сообщения об ошибках
Выбранный диапазон
     Имя файла E:\РАЗДАЧИ\Папки\Accept-Breaker\Accept - Breaker (Remastered).wav
     Пиковый уровень 100.0 %
     Скорость извлечения 4.0 X
     Качество диапазона 100.0 %
     CRC теста 37D2305F
     CRC копии 37D2305F
     Копирование... OK
Ошибок не произошло
AccurateRip: сводка
Трек  1  : извлечено точно (доверие 5)  [CD0C68D2]  (AR v2)
Трек  2  : извлечено точно (доверие 5)  [658D08DE]  (AR v2)
Трек  3  : извлечено точно (доверие 6)  [73C76F74]  (AR v2)
Трек  4  : извлечено точно (доверие 5)  [5B047F0F]  (AR v2)
Трек  5  : извлечено точно (доверие 6)  [2F23D417]  (AR v2)
Трек  6  : извлечено точно (доверие 5)  [5DDFF8E9]  (AR v2)
Трек  7  : извлечено точно (доверие 5)  [4B6A58CE]  (AR v2)
Трек  8  : извлечено точно (доверие 6)  [F2B386AD]  (AR v2)
Трек  9  : извлечено точно (доверие 6)  [D657045C]  (AR v2)
Трек 10  : извлечено точно (доверие 5)  [353936A2]  (AR v2)
Все треки извлечены точно
Конец отчёта

Индексная карта (non-compilant .cue)

REM GENRE "Heavy Metal"
REM DATE 1981
REM DISCID 810A4C0A
REM COMMENT "ExactAudioCopy v1.0b3"
PERFORMER "Accept"
TITLE "Breaker (Remastered)"
FILE "Accept - Breaker (Remastered).flac" WAVE
  TRACK 01 AUDIO
    TITLE "Starlight"
    PERFORMER "Accept"
    INDEX 01 00:00:00
  TRACK 02 AUDIO
    TITLE "Breaker"
    PERFORMER "Accept"
    INDEX 00 03:51:58
    INDEX 01 03:52:52
  TRACK 03 AUDIO
    TITLE "Run If You Can"
    PERFORMER "Accept"
    INDEX 01 07:28:16
  TRACK 04 AUDIO
    TITLE "Can't Stand The Night"
    PERFORMER "Accept"
    INDEX 00 12:15:70
    INDEX 01 12:16:65
  TRACK 05 AUDIO
    TITLE "Son Of A Bitch"
    PERFORMER "Accept"
    INDEX 00 17:37:66
    INDEX 01 17:40:35
  TRACK 06 AUDIO
    TITLE "Burning"
    PERFORMER "Accept"
    INDEX 00 21:32:25
    INDEX 01 21:34:05
  TRACK 07 AUDIO
    TITLE "Feelings"
    PERFORMER "Accept"
    INDEX 00 26:45:25
    INDEX 01 26:47:34
  TRACK 08 AUDIO
    TITLE "Midnight Highway"
    PERFORMER "Accept"
    INDEX 00 31:33:38
    INDEX 01 31:36:04
  TRACK 09 AUDIO
    TITLE "Breaking Up Again"
    PERFORMER "Accept"
    INDEX 00 35:33:14
    INDEX 01 35:34:51
  TRACK 10 AUDIO
    TITLE "Down And Out"
    PERFORMER "Accept"
    INDEX 00 40:10:42
    INDEX 01 40:11:55

Лог Audiochecker

AUDIOCHECKER v2.0 beta (build 457) - by Dester - opdester@freemail.hu
~~~~~~~~~~~~~~~~~~~~~~~~~~~~~~~~~~
Started at: четверг, 11. 06. 2015. - 15:58.27
1 file found
1 -===- D:\Torrent files\Accept-Breaker\Accept - Breaker (Remastered).flac
  Extracted successfully
  Conclusion: this track is CDDA with probability 100%
  Tempfile successfully deleted.
Finished at: четверг, 11. 06. 2015. - 16:00.39 (operation time: 0:02.11)

Скриншот спектра частот

--Не забываем говорить
[Профиль] [ЛС]
Показать сообщения:    

Текущее время: Сегодня 07:11

Часовой пояс: GMT



Вы не можете начинать темы
Вы не можете отвечать на сообщения
Вы не можете редактировать свои сообщения
Вы не можете удалять свои сообщения
Вы не можете голосовать в опросах
Вы не можете прикреплять файлы к сообщениям
Вы не можете скачивать файлы