(Hard Rock) AC-DC - The Complete Soundboard Collection With Bon Scott (1976 - 1979) (Bon Scott Box 14CD) - 2011 [FLAC, image+.cue, lossless]

 
Автор Сообщение

sergej644 ®

Пол:

Стаж: 4 года 11 месяцев

Сообщений: 6040

Откуда: Soviet Union



Награды: Нет

Торрент-статистика

Создавать темы 19-Мар-2015 19:43

[Цитировать]

-AC-DC / The Complete Soundboard Collection With Bon Scott (1976 - 1979) (Bon Scott Box 14CD)-- Год издания: 2011
Страна: Australia
Жанр: Hard Rock
Продолжительность: 13:44:08-Лейбл издания: WLR
Тип альбома: Bootleg
Страна-выпуска диска: EU
Номер по каталогу: WLR-2149
Формат: FLAC
Битрейт аудио: lossless
Тип рипа: image+.cue
Наличие сканов в содержимом раздачи: да

Трэклист

Disc 1 (London) | 00:52:38

01. High Voltage (05:29)
02. Can I Sit Next To You Girls (05:30)
03. Soul Stripper (04:09)
04. Little Lover (04:57)
05. Pete Drummond Intro (00:52)
06. Live Wire (06:03)
07. Pete Drummond (00:21)
08. It`s A Long Way To the Top (05:32)
09. Pete Drummond (00:44)
10. Soul Stripper (07:37)
11. Pete Drummond (00:22)
12. High Voltage (05:27)
13. Pete Drummond (00:28)
14. Baby Please Don`t Go (04:53)
15. Pete Drummond Outro (00:20)

лог создания рипа

Exact Audio Copy V0.99 prebeta 5 from 4. May 2009
EAC extraction logfile from 16. January 2012, 14:00
AC/DC (Bon Scott Box) / Disc1 (London)
Used drive  : _NEC    DVD_RW ND-4570A   Adapter: 1  ID: 0
Read mode               : Secure
Utilize accurate stream : Yes
Defeat audio cache      : Yes
Make use of C2 pointers : No
Read offset correction                      : 48
Overread into Lead-In and Lead-Out          : No
Fill up missing offset samples with silence : Yes
Delete leading and trailing silent blocks   : No
Null samples used in CRC calculations       : Yes
Used interface                              : Native Win32 interface for Win NT & 2000
Used output format              : User Defined Encoder
Selected bitrate                : 128 kBit/s
Quality                         : High
Add ID3 tag                     : No
Command line compressor         : C:\Program Files\Exact Audio Copy\FLAC\FLAC.EXE
Additional command line options : -8 -V -T "ARTIST=%a" -T "TITLE=%t" -T "ALBUM=%g" -T "DATE=%y" -T "TRACKNUMBER=%n" -T "GENRE=%m" -T "COMMENT=EAC FLAC -8" %s
TOC of the extracted CD
     Track |   Start  |  Length  | Start sector | End sector
    ---------------------------------------------------------
        1  |  0:00.00 |  5:28.64 |         0    |    24663
        2  |  5:28.64 |  5:29.66 |     24664    |    49404
        3  | 10:58.55 |  4:08.42 |     49405    |    68046
        4  | 15:07.22 |  4:56.42 |     68047    |    90288
        5  | 20:03.64 |  0:51.55 |     90289    |    94168
        6  | 20:55.44 |  6:02.10 |     94169    |   121328
        7  | 26:57.54 |  0:20.55 |    121329    |   122883
        8  | 27:18.34 |  5:31.01 |    122884    |   147709
        9  | 32:49.35 |  0:43.59 |    147710    |   150993
       10  | 33:33.19 |  7:36.23 |    150994    |   185216
       11  | 41:09.42 |  0:21.42 |    185217    |   186833
       12  | 41:31.09 |  5:26.42 |    186834    |   211325
       13  | 46:57.51 |  0:27.40 |    211326    |   213390
       14  | 47:25.16 |  4:52.58 |    213391    |   235348
       15  | 52:17.74 |  0:19.13 |    235349    |   236786
Range status and errors
Selected range
     Filename C:\Users\Scottsolo\Documents\AC DC (Bon Scott Box) - Disc1 (London).wav
     Peak level 100.0 %
     Range quality 100.0 %
     Test CRC E4D4AC5B
     Copy CRC E4D4AC5B
     Copy OK
No errors occurred
AccurateRip summary
Track  1  accurately ripped (confidence 1)  [CDCBCBC0]
Track  2  accurately ripped (confidence 1)  [911DF79E]
Track  3  accurately ripped (confidence 1)  [C5C35849]
Track  4  accurately ripped (confidence 1)  [297DE638]
Track  5  not present in database
Track  6  not present in database
Track  7  not present in database
Track  8  not present in database
Track  9  not present in database
Track 10  not present in database
Track 11  not present in database
Track 12  not present in database
Track 13  not present in database
Track 14  not present in database
Track 15  not present in database
4 track(s) accurately ripped
11 track(s) not present in the AccurateRip database
Some tracks could not be verified as accurate
End of status report

содержание индексной карты *cue

REM GENRE "Hard Rock"
REM DATE 1976
REM DISCID CC0C550F
REM COMMENT "ExactAudioCopy v0.99pb5"
PERFORMER "AC/DC (Bon Scott Box)"
TITLE "Disc1 (London)"
FILE "AC DC (Bon Scott Box) - Disc1 (London).flac" WAVE
  TRACK 01 AUDIO
    TITLE "High Voltage"
    PERFORMER "AC/DC (Bon Scott Box)"
    FLAGS DCP
    INDEX 01 00:00:00
  TRACK 02 AUDIO
    TITLE "Can I Sit Next To You Girls"
    PERFORMER "AC/DC (Bon Scott Box)"
    FLAGS DCP
    INDEX 01 05:28:64
  TRACK 03 AUDIO
    TITLE "Soul Stripper"
    PERFORMER "AC/DC (Bon Scott Box)"
    FLAGS DCP
    INDEX 01 10:58:55
  TRACK 04 AUDIO
    TITLE "Little Lover"
    PERFORMER "AC/DC (Bon Scott Box)"
    FLAGS DCP
    INDEX 01 15:07:22
  TRACK 05 AUDIO
    TITLE "-Pete Drummond Intro-"
    PERFORMER "AC/DC (Bon Scott Box)"
    FLAGS DCP
    INDEX 01 20:03:64
  TRACK 06 AUDIO
    TITLE "Live Wire"
    PERFORMER "AC/DC (Bon Scott Box)"
    FLAGS DCP
    INDEX 01 20:55:44
  TRACK 07 AUDIO
    TITLE "-Pete Drummond-"
    PERFORMER "AC/DC (Bon Scott Box)"
    FLAGS DCP
    INDEX 01 26:57:54
  TRACK 08 AUDIO
    TITLE "It`s A Long Way To the Top"
    PERFORMER "AC/DC (Bon Scott Box)"
    FLAGS DCP
    INDEX 01 27:18:34
  TRACK 09 AUDIO
    TITLE "-Pete Drummond-"
    PERFORMER "AC/DC (Bon Scott Box)"
    FLAGS DCP
    INDEX 01 32:49:35
  TRACK 10 AUDIO
    TITLE "Soul Stripper"
    PERFORMER "AC/DC (Bon Scott Box)"
    FLAGS DCP
    INDEX 01 33:33:19
  TRACK 11 AUDIO
    TITLE "-Pete Drummond-"
    PERFORMER "AC/DC (Bon Scott Box)"
    FLAGS DCP
    INDEX 01 41:09:42
  TRACK 12 AUDIO
    TITLE "High Voltage"
    PERFORMER "AC/DC (Bon Scott Box)"
    FLAGS DCP
    INDEX 01 41:31:09
  TRACK 13 AUDIO
    TITLE "-Pete Drummond-"
    PERFORMER "AC/DC (Bon Scott Box)"
    FLAGS DCP
    INDEX 01 46:57:51
  TRACK 14 AUDIO
    TITLE "Baby Please Don`t Go"
    PERFORMER "AC/DC (Bon Scott Box)"
    FLAGS DCP
    INDEX 01 47:25:16
  TRACK 15 AUDIO
    TITLE "-Pete Drummond Outro-"
    PERFORMER "AC/DC (Bon Scott Box)"
    FLAGS DCP
    INDEX 01 52:17:74

Disc 2 (Sydney, Nashvile) | 01:21:32

01. Dirty Deeds Done Dirt Cheap*(Official Now) (05:10)
02. Jailbreak (05:09)
03. The Jack (10:29)
04. Can I Sit Next To You Girls (05:38)
05. High Voltage (05:49)
06. Rocker (06:53)
07. It`s A long Way To The Top (08:37)
08. Intro DJ (00:47)
09. Live Wire (05:53)
10. Problem Child (04:40)
11. Sin City (04:55)
12. Gone Shootin` (06:05)
13. Whole Lotta Rosie (04:39)
14. Rocker (06:41)
15. Outro DJ (00:14)

лог создания рипа

Exact Audio Copy V0.99 prebeta 5 from 4. May 2009
EAC extraction logfile from 16. January 2012, 14:47
AC/DC (Bon Scott Box) / Disc2 (Sydney, Nashvile)
Used drive  : _NEC    DVD_RW ND-4570A   Adapter: 1  ID: 0
Read mode               : Secure
Utilize accurate stream : Yes
Defeat audio cache      : Yes
Make use of C2 pointers : No
Read offset correction                      : 48
Overread into Lead-In and Lead-Out          : No
Fill up missing offset samples with silence : Yes
Delete leading and trailing silent blocks   : No
Null samples used in CRC calculations       : Yes
Used interface                              : Native Win32 interface for Win NT & 2000
Used output format              : User Defined Encoder
Selected bitrate                : 128 kBit/s
Quality                         : High
Add ID3 tag                     : No
Command line compressor         : C:\Program Files\Exact Audio Copy\FLAC\FLAC.EXE
Additional command line options : -8 -V -T "ARTIST=%a" -T "TITLE=%t" -T "ALBUM=%g" -T "DATE=%y" -T "TRACKNUMBER=%n" -T "GENRE=%m" -T "COMMENT=EAC FLAC -8" %s
TOC of the extracted CD
     Track |   Start  |  Length  | Start sector | End sector
    ---------------------------------------------------------
        1  |  0:00.00 |  5:09.44 |         0    |    23218
        2  |  5:09.44 |  5:08.39 |     23219    |    46357
        3  | 10:18.08 | 10:28.02 |     46358    |    93459
        4  | 20:46.10 |  5:37.35 |     93460    |   118769
        5  | 26:23.45 |  5:48.01 |    118770    |   144870
        6  | 32:11.46 |  6:53.00 |    144871    |   175845
        7  | 39:04.46 |  8:36.29 |    175846    |   214574
        8  | 47:41.00 |  0:46.62 |    214575    |   218086
        9  | 48:27.62 |  5:52.20 |    218087    |   244506
       10  | 54:20.07 |  4:39.73 |    244507    |   265504
       11  | 59:00.05 |  4:54.37 |    265505    |   287591
       12  | 63:54.42 |  6:04.27 |    287592    |   314918
       13  | 69:58.69 |  4:38.70 |    314919    |   335838
       14  | 74:37.64 |  6:40.11 |    335839    |   365849
       15  | 81:18.00 |  0:13.64 |    365850    |   366888
Range status and errors
Selected range
     Filename C:\Users\Scottsolo\Documents\AC DC (Bon Scott Box) - Disc2 (Sydney, Nashvile).wav
     Peak level 100.0 %
     Range quality 100.0 %
     Test CRC 3B6360D0
     Copy CRC 3B6360D0
     Copy OK
No errors occurred
AccurateRip summary
Track  1  not present in database
Track  2  not present in database
Track  3  not present in database
Track  4  not present in database
Track  5  not present in database
Track  6  not present in database
Track  7  not present in database
Track  8  not present in database
Track  9  not present in database
Track 10  not present in database
Track 11  not present in database
Track 12  not present in database
Track 13  not present in database
Track 14  not present in database
Track 15  not present in database
None of the tracks are present in the AccurateRip database
End of status report

содержание индексной карты *cue

REM GENRE "Hard Rock"
REM DATE 1977
REM DISCID D8131B0F
REM COMMENT "ExactAudioCopy v0.99pb5"
PERFORMER "AC/DC (Bon Scott Box)"
TITLE "Disc2 (Sydney, Nashvile)"
FILE "AC DC (Bon Scott Box) - Disc2 (Sydney, Nashvile).flac" WAVE
  TRACK 01 AUDIO
    TITLE "Dirty Deeds Done Dirt Cheap*(Official Now)"
    PERFORMER "AC/DC (Bon Scott Box)"
    FLAGS DCP
    INDEX 01 00:00:00
  TRACK 02 AUDIO
    TITLE "Jailbreak"
    PERFORMER "AC/DC (Bon Scott Box)"
    FLAGS DCP
    INDEX 01 05:09:44
  TRACK 03 AUDIO
    TITLE "The Jack"
    PERFORMER "AC/DC (Bon Scott Box)"
    FLAGS DCP
    INDEX 01 10:18:08
  TRACK 04 AUDIO
    TITLE "Can I Sit Next To You Girls"
    PERFORMER "AC/DC (Bon Scott Box)"
    FLAGS DCP
    INDEX 01 20:46:10
  TRACK 05 AUDIO
    TITLE "High Voltage"
    PERFORMER "AC/DC (Bon Scott Box)"
    FLAGS DCP
    INDEX 01 26:23:45
  TRACK 06 AUDIO
    TITLE "Rocker"
    PERFORMER "AC/DC (Bon Scott Box)"
    FLAGS DCP
    INDEX 01 32:11:46
  TRACK 07 AUDIO
    TITLE "It`s A long Way To The Top"
    PERFORMER "AC/DC (Bon Scott Box)"
    FLAGS DCP
    INDEX 01 39:04:46
  TRACK 08 AUDIO
    TITLE "Intro DJ"
    PERFORMER "AC/DC (Bon Scott Box)"
    FLAGS DCP
    INDEX 01 47:41:00
  TRACK 09 AUDIO
    TITLE "Live Wire"
    PERFORMER "AC/DC (Bon Scott Box)"
    FLAGS DCP
    INDEX 01 48:27:62
  TRACK 10 AUDIO
    TITLE "Problem Child"
    PERFORMER "AC/DC (Bon Scott Box)"
    FLAGS DCP
    INDEX 01 54:20:07
  TRACK 11 AUDIO
    TITLE "Sin City"
    PERFORMER "AC/DC (Bon Scott Box)"
    FLAGS DCP
    INDEX 01 59:00:05
  TRACK 12 AUDIO
    TITLE "Gone Shootin`"
    PERFORMER "AC/DC (Bon Scott Box)"
    FLAGS DCP
    INDEX 01 63:54:42
  TRACK 13 AUDIO
    TITLE "Whole Lotta Rosie"
    PERFORMER "AC/DC (Bon Scott Box)"
    FLAGS DCP
    INDEX 01 69:58:69
  TRACK 14 AUDIO
    TITLE "Rocker"
    PERFORMER "AC/DC (Bon Scott Box)"
    FLAGS DCP
    INDEX 01 74:37:64
  TRACK 15 AUDIO
    TITLE "Outro DJ"
    PERFORMER "AC/DC (Bon Scott Box)"
    FLAGS DCP
    INDEX 01 81:18:00

Disc 3 (Fort Lauderdale) | 00:53:38

01. Tom Judge Intro (02:17)
02. Live Wire (06:04)
03. Hell Ain`t A Bad Place To Be (04:04)
04. Whole Lotta Rosie (06:03)
05. The Jack (09:39)
06. Problem Child (04:47)
07. Baby Please Don`t Go (09:46)
08. Tom Judge (01:39)
09. Rocker (07:51)
10. Outro (01:33)

лог создания рипа

Exact Audio Copy V0.99 prebeta 5 from 4. May 2009
EAC extraction logfile from 16. January 2012, 15:32
AC/DC (Bon Scott Box) / Disc3 (Fort Lauderdale)
Used drive  : _NEC    DVD_RW ND-4570A   Adapter: 1  ID: 0
Read mode               : Secure
Utilize accurate stream : Yes
Defeat audio cache      : Yes
Make use of C2 pointers : No
Read offset correction                      : 48
Overread into Lead-In and Lead-Out          : No
Fill up missing offset samples with silence : Yes
Delete leading and trailing silent blocks   : No
Null samples used in CRC calculations       : Yes
Used interface                              : Native Win32 interface for Win NT & 2000
Used output format              : User Defined Encoder
Selected bitrate                : 128 kBit/s
Quality                         : High
Add ID3 tag                     : No
Command line compressor         : C:\Program Files\Exact Audio Copy\FLAC\FLAC.EXE
Additional command line options : -8 -V -T "ARTIST=%a" -T "TITLE=%t" -T "ALBUM=%g" -T "DATE=%y" -T "TRACKNUMBER=%n" -T "GENRE=%m" -T "COMMENT=EAC FLAC -8" %s
TOC of the extracted CD
     Track |   Start  |  Length  | Start sector | End sector
    ---------------------------------------------------------
        1  |  0:00.00 |  2:16.64 |         0    |    10263
        2  |  2:16.64 |  6:03.69 |     10264    |    37557
        3  |  8:20.58 |  4:03.04 |     37558    |    55786
        4  | 12:23.62 |  6:02.04 |     55787    |    82940
        5  | 18:25.66 |  9:38.40 |     82941    |   126330
        6  | 28:04.31 |  4:46.24 |    126331    |   147804
        7  | 32:50.55 |  9:45.35 |    147805    |   191714
        8  | 42:36.15 |  1:38.29 |    191715    |   199093
        9  | 44:14.44 |  7:50.09 |    199094    |   234352
       10  | 52:04.53 |  1:32.23 |    234353    |   241275
Range status and errors
Selected range
     Filename C:\Users\Scottsolo\Documents\AC DC (Bon Scott Box) - Disc3 (Fort Lauderdale).wav
     Peak level 100.0 %
     Range quality 99.9 %
     Test CRC AD629B1E
     Copy CRC AD629B1E
     Copy OK
No errors occurred
AccurateRip summary
Track  1  not present in database
Track  2  not present in database
Track  3  not present in database
Track  4  not present in database
Track  5  not present in database
Track  6  not present in database
Track  7  not present in database
Track  8  not present in database
Track  9  not present in database
Track 10  not present in database
None of the tracks are present in the AccurateRip database
End of status report

содержание индексной карты *cue

REM GENRE "Hard Rock"
REM DATE 1977
REM DISCID 890C910A
REM COMMENT "ExactAudioCopy v0.99pb5"
PERFORMER "AC/DC (Bon Scott Box)"
TITLE "Disc3 (Fort Lauderdale)"
FILE "AC DC (Bon Scott Box) - Disc3 (Fort Lauderdale).flac" WAVE
  TRACK 01 AUDIO
    TITLE "Tom Judge Intro"
    PERFORMER "AC/DC (Bon Scott Box)"
    FLAGS DCP
    INDEX 01 00:00:00
  TRACK 02 AUDIO
    TITLE "Live Wire"
    PERFORMER "AC/DC (Bon Scott Box)"
    FLAGS DCP
    INDEX 01 02:16:64
  TRACK 03 AUDIO
    TITLE "Hell Ain`t A Bad Place To Be"
    PERFORMER "AC/DC (Bon Scott Box)"
    FLAGS DCP
    INDEX 01 08:20:58
  TRACK 04 AUDIO
    TITLE "Whole Lotta Rosie"
    PERFORMER "AC/DC (Bon Scott Box)"
    FLAGS DCP
    INDEX 01 12:23:62
  TRACK 05 AUDIO
    TITLE "The Jack"
    PERFORMER "AC/DC (Bon Scott Box)"
    FLAGS DCP
    INDEX 01 18:25:66
  TRACK 06 AUDIO
    TITLE "Problem Child"
    PERFORMER "AC/DC (Bon Scott Box)"
    FLAGS DCP
    INDEX 01 28:04:31
  TRACK 07 AUDIO
    TITLE "Baby Please Don`t Go"
    PERFORMER "AC/DC (Bon Scott Box)"
    FLAGS DCP
    INDEX 01 32:50:55
  TRACK 08 AUDIO
    TITLE "Tom Judge"
    PERFORMER "AC/DC (Bon Scott Box)"
    FLAGS DCP
    INDEX 01 42:36:15
  TRACK 09 AUDIO
    TITLE "Rocker"
    PERFORMER "AC/DC (Bon Scott Box)"
    FLAGS DCP
    INDEX 01 44:14:44
  TRACK 10 AUDIO
    TITLE "Outro"
    PERFORMER "AC/DC (Bon Scott Box)"
    FLAGS DCP
    INDEX 01 52:04:53

Disc 4 (Cleveland) | 00:48:50

01. Live Wire (06:08)
02. She`s Got Balls (06:49)
03. Problem Child (04:47)
04. The Jack (10:21)
05. High Voltage (05:35)
06. Baby Please Don`t Go (09:36)
07. Rocker (05:37)

лог создания рипа

Exact Audio Copy V0.99 prebeta 5 from 4. May 2009
EAC extraction logfile from 16. January 2012, 16:03
AC/DC (Bon Scott Box) / Disc4 (Cleveland)
Used drive  : _NEC    DVD_RW ND-4570A   Adapter: 1  ID: 0
Read mode               : Secure
Utilize accurate stream : Yes
Defeat audio cache      : Yes
Make use of C2 pointers : No
Read offset correction                      : 48
Overread into Lead-In and Lead-Out          : No
Fill up missing offset samples with silence : Yes
Delete leading and trailing silent blocks   : No
Null samples used in CRC calculations       : Yes
Used interface                              : Native Win32 interface for Win NT & 2000
Used output format              : User Defined Encoder
Selected bitrate                : 128 kBit/s
Quality                         : High
Add ID3 tag                     : No
Command line compressor         : C:\Program Files\Exact Audio Copy\FLAC\FLAC.EXE
Additional command line options : -8 -V -T "ARTIST=%a" -T "TITLE=%t" -T "ALBUM=%g" -T "DATE=%y" -T "TRACKNUMBER=%n" -T "GENRE=%m" -T "COMMENT=EAC FLAC -8" %s
TOC of the extracted CD
     Track |   Start  |  Length  | Start sector | End sector
    ---------------------------------------------------------
        1  |  0:00.00 |  6:07.30 |         0    |    27554
        2  |  6:07.30 |  6:48.11 |     27555    |    58165
        3  | 12:55.41 |  4:46.34 |     58166    |    79649
        4  | 17:42.00 | 10:20.25 |     79650    |   126174
        5  | 28:02.25 |  5:34.44 |    126175    |   151268
        6  | 33:36.69 |  9:35.74 |    151269    |   194467
        7  | 43:12.68 |  5:36.62 |    194468    |   219729
Range status and errors
Selected range
     Filename C:\Users\Scottsolo\Documents\AC DC (Bon Scott Box) - Disc4 (Cleveland).wav
     Peak level 100.0 %
     Range quality 100.0 %
     Test CRC 3AE48771
     Copy CRC 3AE48771
     Copy OK
No errors occurred
AccurateRip summary
Track  1  not present in database
Track  2  not present in database
Track  3  not present in database
Track  4  not present in database
Track  5  not present in database
Track  6  not present in database
Track  7  not present in database
None of the tracks are present in the AccurateRip database
End of status report

содержание индексной карты *cue

REM GENRE "Hard Rock"
REM DATE 1977
REM DISCID 660B7107
REM COMMENT "ExactAudioCopy v0.99pb5"
PERFORMER "AC/DC (Bon Scott Box)"
TITLE "Disc4 (Cleveland)"
FILE "AC DC (Bon Scott Box) - Disc4 (Cleveland).flac" WAVE
  TRACK 01 AUDIO
    TITLE "Live Wire"
    PERFORMER "AC/DC (Bon Scott Box)"
    FLAGS DCP
    INDEX 01 00:00:00
  TRACK 02 AUDIO
    TITLE "She`s Got Balls"
    PERFORMER "AC/DC (Bon Scott Box)"
    FLAGS DCP
    INDEX 01 06:07:30
  TRACK 03 AUDIO
    TITLE "Problem Child"
    PERFORMER "AC/DC (Bon Scott Box)"
    FLAGS DCP
    INDEX 01 12:55:41
  TRACK 04 AUDIO
    TITLE "The Jack"
    PERFORMER "AC/DC (Bon Scott Box)"
    FLAGS DCP
    INDEX 01 17:42:00
  TRACK 05 AUDIO
    TITLE "High Voltage"
    PERFORMER "AC/DC (Bon Scott Box)"
    FLAGS DCP
    INDEX 01 28:02:25
  TRACK 06 AUDIO
    TITLE "Baby Please Don`t Go"
    PERFORMER "AC/DC (Bon Scott Box)"
    FLAGS DCP
    INDEX 01 33:36:69
  TRACK 07 AUDIO
    TITLE "Rocker"
    PERFORMER "AC/DC (Bon Scott Box)"
    FLAGS DCP
    INDEX 01 43:12:68

Disc 5 (San Francisco) | 01:01:22

01. Intro (00:45)
02. Live Wire (06:03)
03. Hell Ain`t A Bad Place To Be (04:05)
04. Up To My Neck In You (08:19)
05. Kicked In The Teeth (04:15)
06. The Jack (10:55)
07. Whole Lotta Rosie (05:30)
08. High Voltage (06:11)
09. Baby Please Don`t Go (09:12)
10. Problem Child (06:12)

лог создания рипа

Exact Audio Copy V0.99 prebeta 5 from 4. May 2009
EAC extraction logfile from 16. January 2012, 16:40
AC/DC (Bon Scott Box) / Disc5 (San Francisco)
Used drive  : _NEC    DVD_RW ND-4570A   Adapter: 1  ID: 0
Read mode               : Secure
Utilize accurate stream : Yes
Defeat audio cache      : Yes
Make use of C2 pointers : No
Read offset correction                      : 48
Overread into Lead-In and Lead-Out          : No
Fill up missing offset samples with silence : Yes
Delete leading and trailing silent blocks   : No
Null samples used in CRC calculations       : Yes
Used interface                              : Native Win32 interface for Win NT & 2000
Used output format              : User Defined Encoder
Selected bitrate                : 128 kBit/s
Quality                         : High
Add ID3 tag                     : No
Command line compressor         : C:\Program Files\Exact Audio Copy\FLAC\FLAC.EXE
Additional command line options : -8 -V -T "ARTIST=%a" -T "TITLE=%t" -T "ALBUM=%g" -T "DATE=%y" -T "TRACKNUMBER=%n" -T "GENRE=%m" -T "COMMENT=EAC FLAC -8" %s
TOC of the extracted CD
     Track |   Start  |  Length  | Start sector | End sector
    ---------------------------------------------------------
        1  |  0:00.00 |  0:44.24 |         0    |     3323
        2  |  0:44.24 |  6:02.09 |      3324    |    30482
        3  |  6:46.33 |  4:04.16 |     30483    |    48798
        4  | 10:50.49 |  8:18.66 |     48799    |    86214
        5  | 19:09.40 |  4:14.35 |     86215    |   105299
        6  | 23:24.00 | 10:54.64 |    105300    |   154413
        7  | 34:18.64 |  5:29.60 |    154414    |   179148
        8  | 39:48.49 |  6:10.16 |    179149    |   206914
        9  | 45:58.65 |  9:11.15 |    206915    |   248254
       10  | 55:10.05 |  6:11.22 |    248255    |   276101
Range status and errors
Selected range
     Filename C:\Users\Scottsolo\Documents\AC DC (Bon Scott Box) - Disc5 (San Francisco).wav
     Peak level 100.0 %
     Range quality 100.0 %
     Test CRC 4DC751A4
     Copy CRC 4DC751A4
     Copy OK
No errors occurred
AccurateRip summary
Track  1  not present in database
Track  2  not present in database
Track  3  not present in database
Track  4  not present in database
Track  5  not present in database
Track  6  not present in database
Track  7  not present in database
Track  8  not present in database
Track  9  not present in database
Track 10  not present in database
None of the tracks are present in the AccurateRip database
End of status report

содержание индексной карты *cue

REM GENRE "Hard Rock"
REM DATE 1977
REM DISCID 660E610A
REM COMMENT "ExactAudioCopy v0.99pb5"
PERFORMER "AC/DC (Bon Scott Box)"
TITLE "Disc5 (San Francisco)"
FILE "AC DC (Bon Scott Box) - Disc5 (San Francisco).flac" WAVE
  TRACK 01 AUDIO
    TITLE "Intro"
    PERFORMER "AC/DC (Bon Scott Box)"
    FLAGS DCP
    INDEX 01 00:00:00
  TRACK 02 AUDIO
    TITLE "Live Wire"
    PERFORMER "AC/DC (Bon Scott Box)"
    FLAGS DCP
    INDEX 01 00:44:24
  TRACK 03 AUDIO
    TITLE "Hell Ain`t A Bad Place To Be"
    PERFORMER "AC/DC (Bon Scott Box)"
    FLAGS DCP
    INDEX 01 06:46:33
  TRACK 04 AUDIO
    TITLE "Up To My Neck In You"
    PERFORMER "AC/DC (Bon Scott Box)"
    FLAGS DCP
    INDEX 01 10:50:49
  TRACK 05 AUDIO
    TITLE "Kicked In The Teeth"
    PERFORMER "AC/DC (Bon Scott Box)"
    FLAGS DCP
    INDEX 01 19:09:40
    INDEX 02 23:23:15
  TRACK 06 AUDIO
    TITLE "The Jack"
    PERFORMER "AC/DC (Bon Scott Box)"
    FLAGS DCP
    INDEX 01 23:24:00
  TRACK 07 AUDIO
    TITLE "Whole Lotta Rosie"
    PERFORMER "AC/DC (Bon Scott Box)"
    FLAGS DCP
    INDEX 01 34:18:64
  TRACK 08 AUDIO
    TITLE "High Voltage"
    PERFORMER "AC/DC (Bon Scott Box)"
    FLAGS DCP
    INDEX 01 39:48:49
  TRACK 09 AUDIO
    TITLE "Baby Please Don`t Go"
    PERFORMER "AC/DC (Bon Scott Box)"
    FLAGS DCP
    INDEX 01 45:58:65
  TRACK 10 AUDIO
    TITLE "Problem Child"
    PERFORMER "AC/DC (Bon Scott Box)"
    FLAGS DCP
    INDEX 01 55:10:05

Disc 6 (London) | 01:07:41

01. Let There Be Rock (06:04)
02. Problem Child (04:44)
03. Hell Ain`t A Bad Place To Be (04:13)
04. Whole Lotta Rosie (05:30)
05. Bad Boy Boogie (05:42)
06. Rocker (08:25)
07. TNT (04:37)
08. Let There Be Rock (06:01)
09. Problem Child (04:39)
10. Hell Ain`t A Bad Place To Be (04:17)
11. Whole Lotta Rosie (05:33)
12. Rocker (08:02)

лог создания рипа

Exact Audio Copy V0.99 prebeta 5 from 4. May 2009
EAC extraction logfile from 16. January 2012, 17:16
AC/DC (Bon Scott Box) / Disc6 (London)
Used drive  : _NEC    DVD_RW ND-4570A   Adapter: 1  ID: 0
Read mode               : Secure
Utilize accurate stream : Yes
Defeat audio cache      : Yes
Make use of C2 pointers : No
Read offset correction                      : 48
Overread into Lead-In and Lead-Out          : No
Fill up missing offset samples with silence : Yes
Delete leading and trailing silent blocks   : No
Null samples used in CRC calculations       : Yes
Used interface                              : Native Win32 interface for Win NT & 2000
Used output format              : User Defined Encoder
Selected bitrate                : 128 kBit/s
Quality                         : High
Add ID3 tag                     : No
Command line compressor         : C:\Program Files\Exact Audio Copy\FLAC\FLAC.EXE
Additional command line options : -8 -V -T "ARTIST=%a" -T "TITLE=%t" -T "ALBUM=%g" -T "DATE=%y" -T "TRACKNUMBER=%n" -T "GENRE=%m" -T "COMMENT=EAC FLAC -8" %s
TOC of the extracted CD
     Track |   Start  |  Length  | Start sector | End sector
    ---------------------------------------------------------
        1  |  0:00.00 |  6:03.61 |         0    |    27285
        2  |  6:03.61 |  4:43.36 |     27286    |    48546
        3  | 10:47.22 |  4:12.40 |     48547    |    67486
        4  | 14:59.62 |  5:29.08 |     67487    |    92169
        5  | 20:28.70 |  5:41.37 |     92170    |   117781
        6  | 26:10.32 |  8:24.17 |    117782    |   155598
        7  | 34:34.49 |  4:36.29 |    155599    |   176327
        8  | 39:11.03 |  6:00.70 |    176328    |   203397
        9  | 45:11.73 |  4:38.27 |    203398    |   224274
       10  | 49:50.25 |  4:16.24 |    224275    |   243498
       11  | 54:06.49 |  5:32.06 |    243499    |   268404
       12  | 59:38.55 |  8:01.58 |    268405    |   304537
Range status and errors
Selected range
     Filename C:\Users\Scottsolo\Documents\AC DC (Bon Scott Box) - Disc6 (London).wav
     Peak level 100.0 %
     Range quality 100.0 %
     Test CRC 6F86F3A3
     Copy CRC 6F86F3A3
     Copy OK
No errors occurred
AccurateRip summary
Track  1  not present in database
Track  2  not present in database
Track  3  not present in database
Track  4  not present in database
Track  5  not present in database
Track  6  not present in database
Track  7  not present in database
Track  8  not present in database
Track  9  not present in database
Track 10  not present in database
Track 11  not present in database
Track 12  not present in database
None of the tracks are present in the AccurateRip database
End of status report

содержание индексной карты *cue

REM GENRE "Hard Rock"
REM DATE 1977
REM DISCID A20FDC0C
REM COMMENT "ExactAudioCopy v0.99pb5"
PERFORMER "AC/DC (Bon Scott Box)"
TITLE "Disc6 (London)"
FILE "AC DC (Bon Scott Box) - Disc6 (London).flac" WAVE
  TRACK 01 AUDIO
    TITLE "Let There Be Rock"
    PERFORMER "AC/DC (Bon Scott Box)"
    FLAGS DCP
    INDEX 01 00:00:00
  TRACK 02 AUDIO
    TITLE "Problem Child"
    PERFORMER "AC/DC (Bon Scott Box)"
    FLAGS DCP
    INDEX 01 06:03:61
  TRACK 03 AUDIO
    TITLE "Hell Ain`t A Bad Place To Be"
    PERFORMER "AC/DC (Bon Scott Box)"
    FLAGS DCP
    INDEX 01 10:47:22
  TRACK 04 AUDIO
    TITLE "Whole Lotta Rosie"
    PERFORMER "AC/DC (Bon Scott Box)"
    FLAGS DCP
    INDEX 01 14:59:62
  TRACK 05 AUDIO
    TITLE "Bad Boy Boogie"
    PERFORMER "AC/DC (Bon Scott Box)"
    FLAGS DCP
    INDEX 01 20:28:70
  TRACK 06 AUDIO
    TITLE "Rocker"
    PERFORMER "AC/DC (Bon Scott Box)"
    FLAGS DCP
    INDEX 01 26:10:32
  TRACK 07 AUDIO
    TITLE "TNT"
    PERFORMER "AC/DC (Bon Scott Box)"
    FLAGS DCP
    INDEX 01 34:34:49
  TRACK 08 AUDIO
    TITLE "Let There Be Rock"
    PERFORMER "AC/DC (Bon Scott Box)"
    FLAGS DCP
    INDEX 01 39:11:03
  TRACK 09 AUDIO
    TITLE "Problem Child"
    PERFORMER "AC/DC (Bon Scott Box)"
    FLAGS DCP
    INDEX 01 45:11:73
  TRACK 10 AUDIO
    TITLE "Hell Ain`t A Bad Place To Be"
    PERFORMER "AC/DC (Bon Scott Box)"
    FLAGS DCP
    INDEX 01 49:50:25
  TRACK 11 AUDIO
    TITLE "Whole Lotta Rosie"
    PERFORMER "AC/DC (Bon Scott Box)"
    FLAGS DCP
    INDEX 01 54:06:49
  TRACK 12 AUDIO
    TITLE "Rocker"
    PERFORMER "AC/DC (Bon Scott Box)"
    FLAGS DCP
    INDEX 01 59:38:55

Disc 7 (Boston) | 01:02:18

01. WBCN Intro (00:23)
02. Live Wire (06:14)
03. Problem Child (04:27)
04. Sin City (05:16)
05. Gone Shooting (06:36)
06. Bad Boy Boogie (09:29)
07. The Jack (06:04)
08. High Voltage (07:53)
09. Rocker (07:10)
10. WBCN DJ (01:26)
11. Dog Eat Dog (06:09)
12. WBCN Outro (01:16)

лог создания рипа

Exact Audio Copy V0.99 prebeta 5 from 4. May 2009
EAC extraction logfile from 16. January 2012, 17:51
AC/DC (Bon Scott Box) / Disc7 (Boston)
Used drive  : _NEC    DVD_RW ND-4570A   Adapter: 1  ID: 0
Read mode               : Secure
Utilize accurate stream : Yes
Defeat audio cache      : Yes
Make use of C2 pointers : No
Read offset correction                      : 48
Overread into Lead-In and Lead-Out          : No
Fill up missing offset samples with silence : Yes
Delete leading and trailing silent blocks   : No
Null samples used in CRC calculations       : Yes
Used interface                              : Native Win32 interface for Win NT & 2000
Used output format              : User Defined Encoder
Selected bitrate                : 128 kBit/s
Quality                         : High
Add ID3 tag                     : No
Command line compressor         : C:\Program Files\Exact Audio Copy\FLAC\FLAC.EXE
Additional command line options : -8 -V -T "ARTIST=%a" -T "TITLE=%t" -T "ALBUM=%g" -T "DATE=%y" -T "TRACKNUMBER=%n" -T "GENRE=%m" -T "COMMENT=EAC FLAC -8" %s
TOC of the extracted CD
     Track |   Start  |  Length  | Start sector | End sector
    ---------------------------------------------------------
        1  |  0:00.00 |  0:22.05 |         0    |     1654
        2  |  0:22.05 |  6:13.50 |      1655    |    29679
        3  |  6:35.55 |  4:26.51 |     29680    |    49680
        4  | 11:02.31 |  5:15.47 |     49681    |    73352
        5  | 16:18.03 |  6:35.06 |     73353    |   102983
        6  | 22:53.09 |  9:28.25 |    102984    |   145608
        7  | 32:21.34 |  6:03.10 |    145609    |   172843
        8  | 38:24.44 |  7:52.73 |    172844    |   208316
        9  | 46:17.42 |  7:09.43 |    208317    |   240534
       10  | 53:27.10 |  1:25.48 |    240535    |   246957
       11  | 54:52.58 |  6:08.49 |    246958    |   274606
       12  | 61:01.32 |  1:15.73 |    274607    |   280304
Range status and errors
Selected range
     Filename C:\Users\Scottsolo\Documents\AC DC (Bon Scott Box) - Disc7 (Boston).wav
     Peak level 100.0 %
     Range quality 99.9 %
     Test CRC 288B2AE3
     Copy CRC 288B2AE3
     Copy OK
No errors occurred
AccurateRip summary
Track  1  not present in database
Track  2  not present in database
Track  3  not present in database
Track  4  not present in database
Track  5  not present in database
Track  6  not present in database
Track  7  not present in database
Track  8  not present in database
Track  9  not present in database
Track 10  not present in database
Track 11  not present in database
Track 12  not present in database
None of the tracks are present in the AccurateRip database
End of status report

содержание индексной карты *cue

REM GENRE "Hard Rock"
REM DATE 1978
REM DISCID B30E990C
REM COMMENT "ExactAudioCopy v0.99pb5"
PERFORMER "AC/DC (Bon Scott Box)"
TITLE "Disc7 (Boston)"
FILE "AC DC (Bon Scott Box) - Disc7 (Boston).flac" WAVE
  TRACK 01 AUDIO
    TITLE "WBCN Intro"
    PERFORMER "AC/DC (Bon Scott Box)"
    FLAGS DCP
    INDEX 01 00:00:00
  TRACK 02 AUDIO
    TITLE "Live Wire"
    PERFORMER "AC/DC (Bon Scott Box)"
    FLAGS DCP
    INDEX 01 00:22:05
  TRACK 03 AUDIO
    TITLE "Problem Child"
    PERFORMER "AC/DC (Bon Scott Box)"
    FLAGS DCP
    INDEX 01 06:35:55
  TRACK 04 AUDIO
    TITLE "Sin City"
    PERFORMER "AC/DC (Bon Scott Box)"
    FLAGS DCP
    INDEX 01 11:02:31
  TRACK 05 AUDIO
    TITLE "Gone Shooting"
    PERFORMER "AC/DC (Bon Scott Box)"
    FLAGS DCP
    INDEX 01 16:18:03
  TRACK 06 AUDIO
    TITLE "Bad Boy Boogie"
    PERFORMER "AC/DC (Bon Scott Box)"
    FLAGS DCP
    INDEX 01 22:53:09
  TRACK 07 AUDIO
    TITLE "The Jack"
    PERFORMER "AC/DC (Bon Scott Box)"
    FLAGS DCP
    INDEX 01 32:21:34
  TRACK 08 AUDIO
    TITLE "High Voltage"
    PERFORMER "AC/DC (Bon Scott Box)"
    FLAGS DCP
    INDEX 01 38:24:44
  TRACK 09 AUDIO
    TITLE "Rocker"
    PERFORMER "AC/DC (Bon Scott Box)"
    FLAGS DCP
    INDEX 01 46:17:42
  TRACK 10 AUDIO
    TITLE "WBCN DJ"
    PERFORMER "AC/DC (Bon Scott Box)"
    FLAGS DCP
    INDEX 01 53:27:10
  TRACK 11 AUDIO
    TITLE "Dog Eat Dog"
    PERFORMER "AC/DC (Bon Scott Box)"
    FLAGS DCP
    INDEX 01 54:52:58
  TRACK 12 AUDIO
    TITLE "WBCN Outro"
    PERFORMER "AC/DC (Bon Scott Box)"
    FLAGS DCP
    INDEX 01 61:01:32

Disc 8 (Columbus) | 01:05:38

01. Intro DJ (00:10)
02. Live Wire (06:18)
03. Problem Child (04:38)
04. Sin City (05:29)
05. Gone Shootin` (07:10)
06. Bad Boy Boogie (09:35)
07. Rock And Roll Damnation (04:22)
08. The Jack (06:31)
09. Dog Eat Dog (04:44)
10. Rocker (08:56)
11. Let There Be Rock (07:38)
12. Outro DJ (00:12)

лог создания рипа

Exact Audio Copy V0.99 prebeta 5 from 4. May 2009
EAC extraction logfile from 16. January 2012, 18:34
AC/DC (Bon Scott Box) / Disc8 (Columbus)
Used drive  : _NEC    DVD_RW ND-4570A   Adapter: 1  ID: 0
Read mode               : Secure
Utilize accurate stream : Yes
Defeat audio cache      : Yes
Make use of C2 pointers : No
Read offset correction                      : 48
Overread into Lead-In and Lead-Out          : No
Fill up missing offset samples with silence : Yes
Delete leading and trailing silent blocks   : No
Null samples used in CRC calculations       : Yes
Used interface                              : Native Win32 interface for Win NT & 2000
Used output format              : User Defined Encoder
Selected bitrate                : 128 kBit/s
Quality                         : High
Add ID3 tag                     : No
Command line compressor         : C:\Program Files\Exact Audio Copy\FLAC\FLAC.EXE
Additional command line options : -8 -V -T "ARTIST=%a" -T "TITLE=%t" -T "ALBUM=%g" -T "DATE=%y" -T "TRACKNUMBER=%n" -T "GENRE=%m" -T "COMMENT=EAC FLAC -8" %s
TOC of the extracted CD
     Track |   Start  |  Length  | Start sector | End sector
    ---------------------------------------------------------
        1  |  0:00.00 |  0:09.70 |         0    |      744
        2  |  0:09.70 |  6:17.23 |       745    |    29042
        3  |  6:27.18 |  4:37.33 |     29043    |    49850
        4  | 11:04.51 |  5:28.68 |     49851    |    74518
        5  | 16:33.44 |  7:09.09 |     74519    |   106702
        6  | 23:42.53 |  9:34.05 |    106703    |   149757
        7  | 33:16.58 |  4:21.70 |    149758    |   169402
        8  | 37:38.53 |  6:30.74 |    169403    |   198726
        9  | 44:09.52 |  4:43.73 |    198727    |   220024
       10  | 48:53.50 |  8:55.15 |    220025    |   260164
       11  | 57:48.65 |  7:37.19 |    260165    |   294458
       12  | 65:26.09 |  0:11.35 |    294459    |   295318
Range status and errors
Selected range
     Filename C:\Users\Scottsolo\Documents\AC DC (Bon Scott Box) - Disc8 (Columbus).wav
     Peak level 100.0 %
     Range quality 99.9 %
     Test CRC 8931AF23
     Copy CRC 8931AF23
     Copy OK
No errors occurred
AccurateRip summary
Track  1  not present in database
Track  2  not present in database
Track  3  not present in database
Track  4  not present in database
Track  5  not present in database
Track  6  not present in database
Track  7  not present in database
Track  8  not present in database
Track  9  not present in database
Track 10  not present in database
Track 11  not present in database
Track 12  not present in database
None of the tracks are present in the AccurateRip database
End of status report

содержание индексной карты *cue

REM GENRE "Hard Rock"
REM DATE 1978
REM DISCID B60F610C
REM COMMENT "ExactAudioCopy v0.99pb5"
PERFORMER "AC/DC (Bon Scott Box)"
TITLE "Disc8 (Columbus)"
FILE "AC DC (Bon Scott Box) - Disc8 (Columbus).flac" WAVE
  TRACK 01 AUDIO
    TITLE "Intro DJ"
    PERFORMER "AC/DC (Bon Scott Box)"
    FLAGS DCP
    INDEX 01 00:00:00
  TRACK 02 AUDIO
    TITLE "Live Wire"
    PERFORMER "AC/DC (Bon Scott Box)"
    FLAGS DCP
    INDEX 01 00:09:70
  TRACK 03 AUDIO
    TITLE "Problem Child"
    PERFORMER "AC/DC (Bon Scott Box)"
    FLAGS DCP
    INDEX 01 06:27:18
  TRACK 04 AUDIO
    TITLE "Sin City"
    PERFORMER "AC/DC (Bon Scott Box)"
    FLAGS DCP
    INDEX 01 11:04:51
  TRACK 05 AUDIO
    TITLE "Gone Shootin`"
    PERFORMER "AC/DC (Bon Scott Box)"
    FLAGS DCP
    INDEX 01 16:33:44
  TRACK 06 AUDIO
    TITLE "Bad Boy Boogie"
    PERFORMER "AC/DC (Bon Scott Box)"
    FLAGS DCP
    INDEX 01 23:42:53
  TRACK 07 AUDIO
    TITLE "Rock And Roll Damnation"
    PERFORMER "AC/DC (Bon Scott Box)"
    FLAGS DCP
    INDEX 01 33:16:58
  TRACK 08 AUDIO
    TITLE "The Jack"
    PERFORMER "AC/DC (Bon Scott Box)"
    FLAGS DCP
    INDEX 01 37:38:53
  TRACK 09 AUDIO
    TITLE "Dog Eat Dog"
    PERFORMER "AC/DC (Bon Scott Box)"
    FLAGS DCP
    INDEX 01 44:09:52
  TRACK 10 AUDIO
    TITLE "Rocker"
    PERFORMER "AC/DC (Bon Scott Box)"
    FLAGS DCP
    INDEX 01 48:53:50
  TRACK 11 AUDIO
    TITLE "Let There Be Rock"
    PERFORMER "AC/DC (Bon Scott Box)"
    FLAGS DCP
    INDEX 01 57:48:65
  TRACK 12 AUDIO
    TITLE "Outro DJ"
    PERFORMER "AC/DC (Bon Scott Box)"
    FLAGS DCP
    INDEX 01 65:26:09

Disc 9 (Nijmegen) | 00:55:43

01. Live Wire (06:27)
02. Problem Child (05:00)
03. Sin City (05:25)
04. Gone Shootin` (06:12)
05. High Voltage (05:28)
06. The Jack (06:03)
07. Whole Lotta Rosie (05:03)
08. Rocker (03:53)
09. Rock And Roll Damnation (04:02)
10. Let There Be Rock (08:14)

лог создания рипа

Exact Audio Copy V0.99 prebeta 5 from 4. May 2009
EAC extraction logfile from 16. January 2012, 19:17
AC/DC (Bon Scott Box) / Disc9 (Nijmegen)
Used drive  : _NEC    DVD_RW ND-4570A   Adapter: 1  ID: 0
Read mode               : Secure
Utilize accurate stream : Yes
Defeat audio cache      : Yes
Make use of C2 pointers : No
Read offset correction                      : 48
Overread into Lead-In and Lead-Out          : No
Fill up missing offset samples with silence : Yes
Delete leading and trailing silent blocks   : No
Null samples used in CRC calculations       : Yes
Used interface                              : Native Win32 interface for Win NT & 2000
Used output format              : User Defined Encoder
Selected bitrate                : 128 kBit/s
Quality                         : High
Add ID3 tag                     : No
Command line compressor         : C:\Program Files\Exact Audio Copy\FLAC\FLAC.EXE
Additional command line options : -8 -V -T "ARTIST=%a" -T "TITLE=%t" -T "ALBUM=%g" -T "DATE=%y" -T "TRACKNUMBER=%n" -T "GENRE=%m" -T "COMMENT=EAC FLAC -8" %s
TOC of the extracted CD
     Track |   Start  |  Length  | Start sector | End sector
    ---------------------------------------------------------
        1  |  0:00.00 |  6:26.31 |         0    |    28980
        2  |  6:26.31 |  4:59.73 |     28981    |    51478
        3  | 11:26.29 |  5:24.01 |     51479    |    75779
        4  | 16:50.30 |  6:11.19 |     75780    |   103623
        5  | 23:01.49 |  5:27.65 |    103624    |   128213
        6  | 28:29.39 |  6:02.65 |    128214    |   155428
        7  | 34:32.29 |  5:02.33 |    155429    |   178111
        8  | 39:34.62 |  3:52.26 |    178112    |   195537
        9  | 43:27.13 |  4:01.52 |    195538    |   213664
       10  | 47:28.65 |  8:13.14 |    213665    |   250653
Range status and errors
Selected range
     Filename C:\Users\Scottsolo\Documents\AC DC (Bon Scott Box) - Disc9 (Nijmegen).wav
     Peak level 100.0 %
     Range quality 100.0 %
     Test CRC DF4C8E77
     Copy CRC DF4C8E77
     Copy OK
No errors occurred
AccurateRip summary
Track  1  not present in database
Track  2  not present in database
Track  3  not present in database
Track  4  not present in database
Track  5  not present in database
Track  6  not present in database
Track  7  not present in database
Track  8  not present in database
Track  9  not present in database
Track 10  not present in database
None of the tracks are present in the AccurateRip database
End of status report

содержание индексной карты *cue

REM GENRE "Hard Rock"
REM DATE 1978
REM DISCID 870D0E0A
REM COMMENT "ExactAudioCopy v0.99pb5"
PERFORMER "AC/DC (Bon Scott Box)"
TITLE "Disc9 (Nijmegen)"
FILE "AC DC (Bon Scott Box) - Disc9 (Nijmegen).flac" WAVE
  TRACK 01 AUDIO
    TITLE "Live Wire"
    PERFORMER "AC/DC (Bon Scott Box)"
    FLAGS DCP
    INDEX 01 00:00:00
  TRACK 02 AUDIO
    TITLE "Problem Child"
    PERFORMER "AC/DC (Bon Scott Box)"
    FLAGS DCP
    INDEX 01 06:26:31
  TRACK 03 AUDIO
    TITLE "Sin City"
    PERFORMER "AC/DC (Bon Scott Box)"
    FLAGS DCP
    INDEX 01 11:26:29
  TRACK 04 AUDIO
    TITLE "Gone Shootin`"
    PERFORMER "AC/DC (Bon Scott Box)"
    FLAGS DCP
    INDEX 01 16:50:30
  TRACK 05 AUDIO
    TITLE "High Voltage"
    PERFORMER "AC/DC (Bon Scott Box)"
    FLAGS DCP
    INDEX 01 23:01:49
  TRACK 06 AUDIO
    TITLE "The Jack"
    PERFORMER "AC/DC (Bon Scott Box)"
    FLAGS DCP
    INDEX 01 28:29:39
  TRACK 07 AUDIO
    TITLE "Whole Lotta Rosie"
    PERFORMER "AC/DC (Bon Scott Box)"
    FLAGS DCP
    INDEX 01 34:32:29
  TRACK 08 AUDIO
    TITLE "Rocker"
    PERFORMER "AC/DC (Bon Scott Box)"
    FLAGS DCP
    INDEX 01 39:34:62
  TRACK 09 AUDIO
    TITLE "Rock And Roll Damnation"
    PERFORMER "AC/DC (Bon Scott Box)"
    FLAGS DCP
    INDEX 01 43:27:13
  TRACK 10 AUDIO
    TITLE "Let There Be Rock"
    PERFORMER "AC/DC (Bon Scott Box)"
    FLAGS DCP
    INDEX 01 47:28:65

Disc 10 (Colchester) | 00:34:55

01. Live Wire (Cut) (03:34)
02. Pete Drummond Intro (00:24)
03. Problem Child (04:34)
04. Sin City (05:24)
05. Bad Boy Boogie (08:58)
06. Whole Lotta Rosie (05:26)
07. Rocker (05:49)
08. Encore (00:49)

лог создания рипа

Exact Audio Copy V0.99 prebeta 5 from 4. May 2009
EAC extraction logfile from 18. January 2012, 18:51
AC\DC (Bon Scott Box) / Disc10 (Colchester)
Used drive  : Optiarc DVD RW AD-7173A   Adapter: 1  ID: 1
Read mode               : Secure
Utilize accurate stream : Yes
Defeat audio cache      : Yes
Make use of C2 pointers : No
Read offset correction                      : 48
Overread into Lead-In and Lead-Out          : No
Fill up missing offset samples with silence : Yes
Delete leading and trailing silent blocks   : No
Null samples used in CRC calculations       : Yes
Used interface                              : Native Win32 interface for Win NT & 2000
Used output format              : User Defined Encoder
Selected bitrate                : 128 kBit/s
Quality                         : High
Add ID3 tag                     : No
Command line compressor         : C:\Program Files\Exact Audio Copy\FLAC\FLAC.EXE
Additional command line options : -8 -V -T "ARTIST=%a" -T "TITLE=%t" -T "ALBUM=%g" -T "DATE=%y" -T "TRACKNUMBER=%n" -T "GENRE=%m" -T "COMMENT=EAC FLAC -8" %s
TOC of the extracted CD
     Track |   Start  |  Length  | Start sector | End sector
    ---------------------------------------------------------
        1  |  0:00.00 |  3:33.73 |         0    |    16047
        2  |  3:33.73 |  0:23.13 |     16048    |    17785
        3  |  3:57.11 |  4:33.61 |     17786    |    38321
        4  |  8:30.72 |  5:23.36 |     38322    |    62582
        5  | 13:54.33 |  8:57.10 |     62583    |   102867
        6  | 22:51.43 |  5:25.39 |    102868    |   127281
        7  | 28:17.07 |  5:49.00 |    127282    |   153456
        8  | 34:06.07 |  0:48.16 |    153457    |   157072
Range status and errors
Selected range
     Filename C:\Users\Scottsolo\Documents\AC DC (Bon Scott Box) - Disc10 (Colchester).wav
     Peak level 100.0 %
     Range quality 99.9 %
     Test CRC 6188AFE2
     Copy CRC 6188AFE2
     Copy OK
No errors occurred
End of status report

содержание индексной карты *cue

REM GENRE "Hard Rock"
REM DATE 1978
REM DISCID 66082E08
REM COMMENT "ExactAudioCopy v0.99pb5"
PERFORMER "AC\DC (Bon Scott Box)"
TITLE "Disc10 (Colchester)"
FILE "AC DC (Bon Scott Box) - Disc10 (Colchester).flac" WAVE
  TRACK 01 AUDIO
    TITLE "Live Wire (Cut)"
    PERFORMER "AC\DC (Bon Scott Box)"
    FLAGS DCP
    INDEX 01 00:00:00
  TRACK 02 AUDIO
    TITLE "-Pete Drummond Intro-"
    PERFORMER "AC\DC (Bon Scott Box)"
    FLAGS DCP
    INDEX 01 03:33:73
  TRACK 03 AUDIO
    TITLE " Problem Child"
    PERFORMER "AC\DC (Bon Scott Box)"
    FLAGS DCP
    INDEX 01 03:57:11
  TRACK 04 AUDIO
    TITLE "Sin City"
    PERFORMER "AC\DC (Bon Scott Box)"
    FLAGS DCP
    INDEX 01 08:30:72
  TRACK 05 AUDIO
    TITLE "Bad Boy Boogie"
    PERFORMER "AC\DC (Bon Scott Box)"
    FLAGS DCP
    INDEX 01 13:54:33
  TRACK 06 AUDIO
    TITLE "Whole Lotta Rosie"
    PERFORMER "AC\DC (Bon Scott Box)"
    FLAGS DCP
    INDEX 01 22:51:43
  TRACK 07 AUDIO
    TITLE "Rocker"
    PERFORMER "AC\DC (Bon Scott Box)"
    FLAGS DCP
    INDEX 01 28:17:07
  TRACK 08 AUDIO
    TITLE "Encore"
    PERFORMER "AC\DC (Bon Scott Box)"
    FLAGS DCP
    INDEX 01 34:06:07

Disc 11 (Towson) | 01:16:32

01. Live Wire (06:19)
02. Shot Down In Flames (03:51)
03. Hell Ain`t A Bad Place To Be (04:12)
04. Sin City (05:19)
05. Problem Child (04:26)
06. Bad Boy Boogie (11:43)
07. The Jack (06:04)
08. Highway To Hell (03:06)
09. High Voltage (06:17)
10. Whole Lotta Rosie (05:04)
11. Rocker (08:25)
12. If You Want Blood (05:56)
13. Let There Be Rock (05:56)

лог создания рипа

Exact Audio Copy V0.99 prebeta 5 from 4. May 2009
EAC extraction logfile from 18. January 2012, 12:23
AC/DC (Bon Scott Box) / Disc11 (Towson)
Used drive  : _NEC    DVD_RW ND-4570A   Adapter: 1  ID: 0
Read mode               : Secure
Utilize accurate stream : Yes
Defeat audio cache      : Yes
Make use of C2 pointers : No
Read offset correction                      : 48
Overread into Lead-In and Lead-Out          : No
Fill up missing offset samples with silence : Yes
Delete leading and trailing silent blocks   : No
Null samples used in CRC calculations       : Yes
Used interface                              : Native Win32 interface for Win NT & 2000
Used output format              : User Defined Encoder
Selected bitrate                : 128 kBit/s
Quality                         : High
Add ID3 tag                     : No
Command line compressor         : C:\Program Files\Exact Audio Copy\FLAC\FLAC.EXE
Additional command line options : -8 -V -T "ARTIST=%a" -T "TITLE=%t" -T "ALBUM=%g" -T "DATE=%y" -T "TRACKNUMBER=%n" -T "GENRE=%m" -T "COMMENT=EAC FLAC -8" %s
TOC of the extracted CD
     Track |   Start  |  Length  | Start sector | End sector
    ---------------------------------------------------------
        1  |  0:00.00 |  6:18.68 |         0    |    28417
        2  |  6:18.68 |  3:50.11 |     28418    |    45678
        3  | 10:09.04 |  4:11.72 |     45679    |    64575
        4  | 14:21.01 |  5:18.45 |     64576    |    88470
        5  | 19:39.46 |  4:25.31 |     88471    |   108376
        6  | 24:05.02 | 11:42.23 |    108377    |   161049
        7  | 35:47.25 |  6:03.03 |    161050    |   188277
        8  | 41:50.28 |  3:05.51 |    188278    |   202203
        9  | 44:56.04 |  6:16.30 |    202204    |   230433
       10  | 51:12.34 |  5:03.12 |    230434    |   253170
       11  | 56:15.46 |  8:24.62 |    253171    |   291032
       12  | 64:40.33 |  5:55.39 |    291033    |   317696
       13  | 70:35.72 |  5:55.31 |    317697    |   344352
Range status and errors
Selected range
     Filename C:\Users\Scottsolo\Documents\AC DC (Bon Scott Box) - Disc11 (Towson).wav
     Peak level 100.0 %
     Range quality 100.0 %
     Test CRC 32DBE6CE
     Copy CRC 32DBE6CE
     Copy OK
No errors occurred
AccurateRip summary
Track  1  not present in database
Track  2  not present in database
Track  3  not present in database
Track  4  not present in database
Track  5  not present in database
Track  6  not present in database
Track  7  not present in database
Track  8  not present in database
Track  9  not present in database
Track 10  not present in database
Track 11  not present in database
Track 12  not present in database
Track 13  not present in database
None of the tracks are present in the AccurateRip database
End of status report

содержание индексной карты *cue

REM GENRE "Hard Rock"
REM DATE 1979
REM DISCID BB11EF0D
REM COMMENT "ExactAudioCopy v0.99pb5"
PERFORMER "AC/DC (Bon Scott Box)"
TITLE "Disc11 (Towson)"
FILE "AC DC (Bon Scott Box) - Disc11 (Towson).flac" WAVE
  TRACK 01 AUDIO
    TITLE "Live Wire"
    PERFORMER "AC/DC (Bon Scott Box)"
    FLAGS DCP
    INDEX 01 00:00:00
  TRACK 02 AUDIO
    TITLE "Shot Down In Flames"
    PERFORMER "AC/DC (Bon Scott Box)"
    FLAGS DCP
    INDEX 01 06:18:68
  TRACK 03 AUDIO
    TITLE "Hell Ain`t A Bad Place To Be"
    PERFORMER "AC/DC (Bon Scott Box)"
    FLAGS DCP
    INDEX 01 10:09:04
  TRACK 04 AUDIO
    TITLE "Sin City"
    PERFORMER "AC/DC (Bon Scott Box)"
    FLAGS DCP
    INDEX 01 14:21:01
  TRACK 05 AUDIO
    TITLE "Problem Child"
    PERFORMER "AC/DC (Bon Scott Box)"
    FLAGS DCP
    INDEX 01 19:39:46
  TRACK 06 AUDIO
    TITLE "Bad Boy Boogie"
    PERFORMER "AC/DC (Bon Scott Box)"
    FLAGS DCP
    INDEX 01 24:05:02
  TRACK 07 AUDIO
    TITLE "The Jack"
    PERFORMER "AC/DC (Bon Scott Box)"
    FLAGS DCP
    INDEX 01 35:47:25
  TRACK 08 AUDIO
    TITLE "Highway To Hell"
    PERFORMER "AC/DC (Bon Scott Box)"
    FLAGS DCP
    INDEX 01 41:50:28
  TRACK 09 AUDIO
    TITLE "High Voltage"
    PERFORMER "AC/DC (Bon Scott Box)"
    FLAGS DCP
    INDEX 01 44:56:04
  TRACK 10 AUDIO
    TITLE "Whole Lotta Rosie"
    PERFORMER "AC/DC (Bon Scott Box)"
    FLAGS DCP
    INDEX 01 51:12:34
  TRACK 11 AUDIO
    TITLE "Rocker"
    PERFORMER "AC/DC (Bon Scott Box)"
    FLAGS DCP
    INDEX 01 56:15:46
  TRACK 12 AUDIO
    TITLE "If You Want Blood"
    PERFORMER "AC/DC (Bon Scott Box)"
    FLAGS DCP
    INDEX 01 64:40:33
  TRACK 13 AUDIO
    TITLE "Let There Be Rock"
    PERFORMER "AC/DC (Bon Scott Box)"
    FLAGS DCP
    INDEX 01 70:35:72

Disc 12 (London) Part 1 | 00:43:29

01. Live Wire (06:27)
02. Shot Down In Flames (03:44)
03. Hell Ain`t A Bad Place To Be (04:27)
04. Sin City (05:27)
05. Walk All Over You (04:53)
06. Bad Boy Boogie (12:58)
07. The Jack (05:35)

лог создания рипа

Exact Audio Copy V0.99 prebeta 5 from 4. May 2009
EAC extraction logfile from 18. January 2012, 13:13
AC/DC (Bon Scott Box) / Disc12 (London) Part1
Used drive  : _NEC    DVD_RW ND-4570A   Adapter: 1  ID: 0
Read mode               : Secure
Utilize accurate stream : Yes
Defeat audio cache      : Yes
Make use of C2 pointers : No
Read offset correction                      : 48
Overread into Lead-In and Lead-Out          : No
Fill up missing offset samples with silence : Yes
Delete leading and trailing silent blocks   : No
Null samples used in CRC calculations       : Yes
Used interface                              : Native Win32 interface for Win NT & 2000
Used output format              : User Defined Encoder
Selected bitrate                : 128 kBit/s
Quality                         : High
Add ID3 tag                     : No
Command line compressor         : C:\Program Files\Exact Audio Copy\FLAC\FLAC.EXE
Additional command line options : -8 -V -T "ARTIST=%a" -T "TITLE=%t" -T "ALBUM=%g" -T "DATE=%y" -T "TRACKNUMBER=%n" -T "GENRE=%m" -T "COMMENT=EAC FLAC -8" %s
TOC of the extracted CD
     Track |   Start  |  Length  | Start sector | End sector
    ---------------------------------------------------------
        1  |  0:00.00 |  6:26.29 |         0    |    28978
        2  |  6:26.29 |  3:43.74 |     28979    |    45777
        3  | 10:10.28 |  4:26.67 |     45778    |    65794
        4  | 14:37.20 |  5:26.57 |     65795    |    90301
        5  | 20:04.02 |  4:52.52 |     90302    |   112253
        6  | 24:56.54 | 12:57.66 |    112254    |   170594
        7  | 37:54.45 |  5:34.28 |    170595    |   195672
Range status and errors
Selected range
     Filename C:\Users\Scottsolo\Documents\AC DC (Bon Scott Box) - Disc12 (London) Part1.wav
     Peak level 100.0 %
     Range quality 100.0 %
     Test CRC 240C2E73
     Copy CRC 240C2E73
     Copy OK
No errors occurred
AccurateRip summary
Track  1  not present in database
Track  2  not present in database
Track  3  not present in database
Track  4  not present in database
Track  5  not present in database
Track  6  not present in database
Track  7  not present in database
None of the tracks are present in the AccurateRip database
End of status report

содержание индексной карты *cue

REM GENRE "Hard Rock"
REM DATE 1979
REM DISCID 660A3007
REM COMMENT "ExactAudioCopy v0.99pb5"
PERFORMER "AC/DC (Bon Scott Box)"
TITLE "Disc12 (London) Part1"
FILE "AC DC (Bon Scott Box) - Disc12 (London) Part1.flac" WAVE
  TRACK 01 AUDIO
    TITLE "Live Wire"
    PERFORMER "AC/DC (Bon Scott Box)"
    INDEX 01 00:00:00
  TRACK 02 AUDIO
    TITLE "Shot Down In Flames"
    PERFORMER "AC/DC (Bon Scott Box)"
    INDEX 01 06:26:29
  TRACK 03 AUDIO
    TITLE "Hell Ain`t A Bad Place To Be"
    PERFORMER "AC/DC (Bon Scott Box)"
    INDEX 01 10:10:28
  TRACK 04 AUDIO
    TITLE "Sin City"
    PERFORMER "AC/DC (Bon Scott Box)"
    INDEX 01 14:37:20
  TRACK 05 AUDIO
    TITLE "Walk All Over You"
    PERFORMER "AC/DC (Bon Scott Box)"
    INDEX 01 20:04:02
  TRACK 06 AUDIO
    TITLE "Bad Boy Boogie"
    PERFORMER "AC/DC (Bon Scott Box)"
    INDEX 01 24:56:54
  TRACK 07 AUDIO
    TITLE "The Jack"
    PERFORMER "AC/DC (Bon Scott Box)"
    INDEX 01 37:54:45

Disc 12 (London) Part 2 | 00:52:52

01. Highway To Hell (03:39)
02. Girls Got Rhythm (03:40)
03. High Voltage (06:37)
04. Whole Lotta Rosie (04:49)
05. Rocker (10:04)
06. Encore (02:29)
07. If You Want Blood (05:32)
08. Let There Be Rock (07:34)
09. Live Wire (05:05)
10. Shot Down In Flames (03:28)

лог создания рипа

Exact Audio Copy V0.99 prebeta 5 from 4. May 2009
EAC extraction logfile from 18. January 2012, 14:08
AC/DC (Bon Scott Box) / Disc12 (London) Part2
Used drive  : _NEC    DVD_RW ND-4570A   Adapter: 1  ID: 0
Read mode               : Secure
Utilize accurate stream : Yes
Defeat audio cache      : Yes
Make use of C2 pointers : No
Read offset correction                      : 48
Overread into Lead-In and Lead-Out          : No
Fill up missing offset samples with silence : Yes
Delete leading and trailing silent blocks   : No
Null samples used in CRC calculations       : Yes
Used interface                              : Native Win32 interface for Win NT & 2000
Used output format              : User Defined Encoder
Selected bitrate                : 128 kBit/s
Quality                         : High
Add ID3 tag                     : No
Command line compressor         : C:\Program Files\Exact Audio Copy\FLAC\FLAC.EXE
Additional command line options : -8 -V -T "ARTIST=%a" -T "TITLE=%t" -T "ALBUM=%g" -T "DATE=%y" -T "TRACKNUMBER=%n" -T "GENRE=%m" -T "COMMENT=EAC FLAC -8" %s
TOC of the extracted CD
     Track |   Start  |  Length  | Start sector | End sector
    ---------------------------------------------------------
        1  |  0:00.00 |  3:38.15 |         0    |    16364
        2  |  3:38.15 |  3:39.08 |     16365    |    32797
        3  |  7:17.23 |  6:36.24 |     32798    |    62521
        4  | 13:53.47 |  4:48.44 |     62522    |    84165
        5  | 18:42.16 | 10:03.70 |     84166    |   129460
        6  | 28:46.11 |  2:28.22 |    129461    |   140582
        7  | 31:14.33 |  5:31.60 |    140583    |   165467
        8  | 36:46.18 |  7:33.11 |    165468    |   199453
        9  | 44:19.29 |  5:04.44 |    199454    |   222297
       10  | 49:23.73 |  3:27.11 |    222298    |   237833
Range status and errors
Selected range
     Filename C:\Users\Scottsolo\Documents\AC DC (Bon Scott Box) - Disc12 (London) Part2.wav
     Peak level 100.0 %
     Range quality 100.0 %
     Test CRC 31CCF2DF
     Copy CRC 31CCF2DF
     Copy OK
No errors occurred
AccurateRip summary
Track  1  not present in database
Track  2  not present in database
Track  3  not present in database
Track  4  not present in database
Track  5  not present in database
Track  6  not present in database
Track  7  not present in database
Track  8  not present in database
Track  9  not present in database
Track 10  not present in database
None of the tracks are present in the AccurateRip database
End of status report

содержание индексной карты *cue

REM GENRE "Hard Rock"
REM DATE 1979
REM DISCID 870C630A
REM COMMENT "ExactAudioCopy v0.99pb5"
PERFORMER "AC/DC (Bon Scott Box)"
TITLE "Disc12 (London) Part2"
FILE "AC DC (Bon Scott Box) - Disc12 (London) Part2.flac" WAVE
  TRACK 01 AUDIO
    TITLE "Highway To Hell"
    PERFORMER "AC/DC (Bon Scott Box)"
    INDEX 01 00:00:00
  TRACK 02 AUDIO
    TITLE "Girls Got Rhythm"
    PERFORMER "AC/DC (Bon Scott Box)"
    INDEX 01 03:38:15
  TRACK 03 AUDIO
    TITLE "High Voltage"
    PERFORMER "AC/DC (Bon Scott Box)"
    INDEX 01 07:17:23
  TRACK 04 AUDIO
    TITLE "Whole Lotta Rosie"
    PERFORMER "AC/DC (Bon Scott Box)"
    INDEX 01 13:53:47
  TRACK 05 AUDIO
    TITLE "Rocker"
    PERFORMER "AC/DC (Bon Scott Box)"
    INDEX 01 18:42:16
  TRACK 06 AUDIO
    TITLE "Encore"
    PERFORMER "AC/DC (Bon Scott Box)"
    INDEX 01 28:46:11
  TRACK 07 AUDIO
    TITLE "If You Want Blood"
    PERFORMER "AC/DC (Bon Scott Box)"
    INDEX 01 31:14:33
  TRACK 08 AUDIO
    TITLE "Let There Be Rock"
    PERFORMER "AC/DC (Bon Scott Box)"
    INDEX 01 36:46:18
  TRACK 09 AUDIO
    TITLE "Live Wire"
    PERFORMER "AC/DC (Bon Scott Box)"
    INDEX 01 44:19:29
  TRACK 10 AUDIO
    TITLE "Shot Down In Flames"
    PERFORMER "AC/DC (Bon Scott Box)"
    INDEX 01 49:23:73

Disc 13 (Amsterdam) | 01:07:08

01. Liwe Wirу (06:01)
02. Shot Down In Flames (03:34)
03. Hell Ain`t A Bad Place To Be (04:13)
04. Sin City (05:33)
05. Walk All Over You (04:51)
06. Bad Boy Boogie (12:44)
07. The Jack (05:37)
08. Highway To Hell (03:13)
09. High Voltage (06:27)
10. Whole Lotta Rosie (05:01)
11. Rocker (09:58)

лог создания рипа

Exact Audio Copy V0.99 prebeta 5 from 4. May 2009
EAC extraction logfile from 18. January 2012, 16:25
AC/DC (Bon Scott Box) / Disc13 (Amsterdam)
Used drive  : _NEC    DVD_RW ND-4570A   Adapter: 1  ID: 0
Read mode               : Secure
Utilize accurate stream : Yes
Defeat audio cache      : Yes
Make use of C2 pointers : No
Read offset correction                      : 48
Overread into Lead-In and Lead-Out          : No
Fill up missing offset samples with silence : Yes
Delete leading and trailing silent blocks   : No
Null samples used in CRC calculations       : Yes
Used interface                              : Native Win32 interface for Win NT & 2000
Used output format              : User Defined Encoder
Selected bitrate                : 128 kBit/s
Quality                         : High
Add ID3 tag                     : No
Command line compressor         : C:\Program Files\Exact Audio Copy\FLAC\FLAC.EXE
Additional command line options : -8 -V -T "ARTIST=%a" -T "TITLE=%t" -T "ALBUM=%g" -T "DATE=%y" -T "TRACKNUMBER=%n" -T "GENRE=%m" -T "COMMENT=EAC FLAC -8" %s
TOC of the extracted CD
     Track |   Start  |  Length  | Start sector | End sector
    ---------------------------------------------------------
        1  |  0:00.00 |  6:00.71 |         0    |    27070
        2  |  6:00.71 |  3:33.17 |     27071    |    43062
        3  |  9:34.13 |  4:12.51 |     43063    |    62013
        4  | 13:46.64 |  5:32.70 |     62014    |    86983
        5  | 19:19.59 |  4:50.24 |     86984    |   108757
        6  | 24:10.08 | 12:43.23 |    108758    |   166005
        7  | 36:53.31 |  5:37.00 |    166006    |   191280
        8  | 42:30.31 |  3:12.73 |    191281    |   205753
        9  | 45:43.29 |  6:26.14 |    205754    |   234717
       10  | 52:09.43 |  5:00.57 |    234718    |   257274
       11  | 57:10.25 |  9:57.21 |    257275    |   302070
Range status and errors
Selected range
     Filename C:\Users\Scottsolo\Documents\AC DC (Bon Scott Box) - Disc13 (Amsterdam).wav
     Peak level 100.0 %
     Range quality 99.8 %
     Test CRC FF99DA4E
     Copy CRC FF99DA4E
     Copy OK
No errors occurred
AccurateRip summary
Track  1  not present in database
Track  2  not present in database
Track  3  not present in database
Track  4  not present in database
Track  5  not present in database
Track  6  not present in database
Track  7  not present in database
Track  8  not present in database
Track  9  not present in database
Track 10  not present in database
Track 11  not present in database
None of the tracks are present in the AccurateRip database
End of status report

содержание индексной карты *cue

REM GENRE "Hard Rock"
REM DATE 1979
REM DISCID 840FBB0B
REM COMMENT "ExactAudioCopy v0.99pb5"
PERFORMER "AC/DC (Bon Scott Box)"
TITLE "Disc13 (Amsterdam)"
FILE "AC DC (Bon Scott Box) - Disc13 (Amsterdam).flac" WAVE
  TRACK 01 AUDIO
    TITLE "Liwe Wirу"
    PERFORMER "AC/DC (Bon Scott Box)"
    FLAGS DCP
    INDEX 01 00:00:00
  TRACK 02 AUDIO
    TITLE "Shot Down In Flames"
    PERFORMER "AC/DC (Bon Scott Box)"
    FLAGS DCP
    INDEX 01 06:00:71
  TRACK 03 AUDIO
    TITLE "Hell Ain`t A Bad Place To Be"
    PERFORMER "AC/DC (Bon Scott Box)"
    FLAGS DCP
    INDEX 01 09:34:13
  TRACK 04 AUDIO
    TITLE "Sin City"
    PERFORMER "AC/DC (Bon Scott Box)"
    FLAGS DCP
    INDEX 01 13:46:64
  TRACK 05 AUDIO
    TITLE "Walk All Over You"
    PERFORMER "AC/DC (Bon Scott Box)"
    FLAGS DCP
    INDEX 01 19:19:59
  TRACK 06 AUDIO
    TITLE "Bad Boy Boogie"
    PERFORMER "AC/DC (Bon Scott Box)"
    FLAGS DCP
    INDEX 01 24:10:08
  TRACK 07 AUDIO
    TITLE "The Jack"
    PERFORMER "AC/DC (Bon Scott Box)"
    FLAGS DCP
    INDEX 01 36:53:31
  TRACK 08 AUDIO
    TITLE "Highway To Hell"
    PERFORMER "AC/DC (Bon Scott Box)"
    FLAGS DCP
    INDEX 01 42:30:31
  TRACK 09 AUDIO
    TITLE "High Voltage"
    PERFORMER "AC/DC (Bon Scott Box)"
    FLAGS DCP
    INDEX 01 45:43:29
  TRACK 10 AUDIO
    TITLE "Whole Lotta Rosie"
    PERFORMER "AC/DC (Bon Scott Box)"
    FLAGS DCP
    INDEX 01 52:09:43
  TRACK 11 AUDIO
    TITLE "Rocker"
    PERFORMER "AC/DC (Bon Scott Box)"
    FLAGS DCP
    INDEX 01 57:10:25

Об альбоме (сборнике)

на CD собрана коллекция бутлегов группы.
--
[Профиль] [ЛС]

Garik014

Пол:

Стаж: 1 год 9 месяцев

Сообщений: 460

Откуда: Черкассы



Награды: 1 (Подробнее)

Mega Seeder 1 (Количество: 1)
Торрент-статистика

Создавать темы 19-Мар-2015 21:40 (спустя 1 час 57 минут)

[Цитировать]

СПС!!! ну скорость у вас, шляпу снимаю!!!
[Профиль] [ЛС]
Показать сообщения:    

Текущее время: Сегодня 08:49

Часовой пояс: GMT



Вы не можете начинать темы
Вы не можете отвечать на сообщения
Вы не можете редактировать свои сообщения
Вы не можете удалять свои сообщения
Вы не можете голосовать в опросах
Вы не можете прикреплять файлы к сообщениям
Вы не можете скачивать файлы