(Hard Rock) AC-DC - Platinum Hits (2CD) - 1999 [FLAC, tracks+.cue, lossless]

 
Автор Сообщение

sergej644 ®

Пол:

Стаж: 4 года 11 месяцев

Сообщений: 6044

Откуда: Soviet Union



Награды: Нет

Торрент-статистика

Создавать темы 04-Июн-2015 08:27

[Цитировать]

-AC-DC / Platinum Hits (2CD)-- Год издания: 1999
Страна: UK/ Australia
Жанр: Hard Rock
Продолжительность: 02:31:21-Тип альбома: Compilation
Страна-выпуска диска: Russia
Формат: FLAC
Битрейт аудио: lossless
Тип рипа: tracks+.cue
Наличие сканов в содержимом раздачи: фото
--

Трэклист

CD 1 | 01:17:23

01.Highway To Hell (03:29)
02.Hell's Bells (05:12)
03.Are You Ready (04:10)
04.Hail Caesar (05:14)
05.Dirty Deeds Done Dirt Cheap (04:12)
06.The Jack (05:47)
07.Shake Your Foundations (04:08)
08.Heatseeker (03:49)
09.Whole Lotta Rosie (05:21)
10.If You Want Blood (You've Got It) (04:31)
11.You Shook Me All Night Long (03:31)
12.Thunderstruck (04:53)
13.Nervous Shakedown (04:27)
14.Rock'N'Roll Damnation (03:37)
15.Ballbreaker (04:31)
16.Kicked In The Teeth (03:55)
17.Rocker (02:49)
18.Landslide (03:56)

CD 2 | 01:13:58

01.Big Gun (04:23)
02.Touch To Much (04:30)
03.Rock'N'Roll (04:16)
04.Mony Talks (03:48)
05.Hard As A Rock (04:32)
06.Let There Be Rock (06:07)
07.Dog Eat Dog (03:27)
08.Back In Black (04:14)
09.For Those About To (05:47)
10.Who Made Who (03:28)
11.T.N.T. (03:35)
12.Jailbreak (04:39)
13.Fly On The Wall (03:45)
14.Mean Streak (04:11)
15.Given The Dog A Bone (03:35)
16.Can I Sit Next To You Girl (04:13)
17.Fire Your Guns (02:57)
18.Big Balls (02:39)
--

Лог создания рипа

CD 1

Exact Audio Copy V1.0 beta 3 from 29. August 2011
Отчёт EAC об извлечении, выполненном 1. июня 2015, 22:45
AC-DC / Platinum Hits CD1
Дисковод: PIONEER DVD-RW  DVR-115D   Adapter: 1  ID: 0
Режим чтения                 : Достоверность
Использование точного потока : Да
Отключение кэша аудио        : Да
Использование указателей C2  : Нет
Коррекция смещения при чтении                     : 48
Способность читать области Lead-in и Lead-out     : Нет
Заполнение пропущенных сэмплов тишиной            : Да
Удаление блоков с тишиной в начале и конце        : Нет
При вычислениях CRC использовались нулевые сэмплы : Да
Интерфейс                                         : Встроенный Win32-интерфейс для Win NT/2000
Обработка зазоров                                 : Добавлено к предыдущему треку
Выходной формат          : Пользовательский кодировщик
Выбранный битрейт        : 128 kBit/s
Качество                 : Высокий
Добавление ID3-тега      : Нет
Утилита сжатия           : C:\Program Files\FLAC\flac.exe
Дополнительные параметры : -V -8 -T "Genre=%genre%" -T "Artist=%artist%" -T "Title=%title%" -T "Album=%albumtitle%" -T "Date=%year%" -T "Tracknumber=%tracknr%" -T "Comment=%comment%" %source%
TOC извлечённого CD
     Трек |   Старт  | Длительность | Начальный сектор | Конечный сектор
    ---------------------------------------------------------------------
       1  |  0:00.00 |    3:28.14   |           0      |      15613
       2  |  3:28.14 |    5:11.43   |       15614      |      38981
       3  |  8:39.57 |    4:09.10   |       38982      |      57666
       4  | 12:48.67 |    5:13.05   |       57667      |      81146
       5  | 18:01.72 |    4:11.39   |       81147      |     100010
       6  | 22:13.36 |    5:46.66   |      100011      |     126026
       7  | 28:00.27 |    4:07.06   |      126027      |     144557
       8  | 32:07.33 |    3:48.01   |      144558      |     161658
       9  | 35:55.34 |    5:20.51   |      161659      |     185709
      10  | 41:16.10 |    4:30.64   |      185710      |     206023
      11  | 45:46.74 |    3:30.38   |      206024      |     221811
      12  | 49:17.37 |    4:52.10   |      221812      |     243721
      13  | 54:09.47 |    4:26.01   |      243722      |     263672
      14  | 58:35.48 |    3:36.74   |      263673      |     279946
      15  | 62:12.47 |    4:30.18   |      279947      |     300214
      16  | 66:42.65 |    3:54.62   |      300215      |     317826
      17  | 70:37.52 |    2:48.42   |      317827      |     330468
      18  | 73:26.19 |    3:56.00   |      330469      |     348168
Трек  1
     Имя файла G:\ AC_DC ?– Platinum Hits\01 - Highway To Hell.wav
     Длина предзазора  0:00:02.00
     Пиковый уровень 85.6 %
     Скорость извлечения 4.6 X
     Качество трека 100.0 %
     CRC теста 7377F599
     CRC копии 7377F599
     Точное извлечение (достоверность 1)  [B0EB670B]  (AR v2)
     Копирование... OK
Трек  2
     Имя файла G:\ AC_DC ?– Platinum Hits\02 - Hell's Bells.wav
     Пиковый уровень 82.8 %
     Скорость извлечения 5.4 X
     Качество трека 100.0 %
     CRC теста 654C2C9F
     CRC копии 654C2C9F
     Точное извлечение (достоверность 1)  [A866EEFC]  (AR v2)
     Копирование... OK
Трек  3
     Имя файла G:\ AC_DC ?– Platinum Hits\03 - Are You Ready.wav
     Пиковый уровень 79.6 %
     Скорость извлечения 5.6 X
     Качество трека 100.0 %
     CRC теста F0714B13
     CRC копии F0714B13
     Точное извлечение (достоверность 1)  [19791BBF]  (AR v2)
     Копирование... OK
Трек  4
     Имя файла G:\ AC_DC ?– Platinum Hits\04 - Hail Caesar.wav
     Пиковый уровень 77.6 %
     Скорость извлечения 5.7 X
     Качество трека 99.9 %
     CRC теста EDF68CC0
     CRC копии EDF68CC0
     Точное извлечение (достоверность 1)  [51E0284E]  (AR v2)
     Копирование... OK
Трек  5
     Имя файла G:\ AC_DC ?– Platinum Hits\05 - Dirty Deeds Done Dirt Cheap.wav
     Пиковый уровень 78.7 %
     Скорость извлечения 6.5 X
     Качество трека 100.0 %
     CRC теста 99AC8E0A
     CRC копии 99AC8E0A
     Точное извлечение (достоверность 1)  [08D67E17]  (AR v2)
     Копирование... OK
Трек  6
     Имя файла G:\ AC_DC ?– Platinum Hits\06 - The Jack.wav
     Пиковый уровень 88.8 %
     Скорость извлечения 7.0 X
     Качество трека 100.0 %
     CRC теста B50949B8
     CRC копии B50949B8
     Точное извлечение (достоверность 1)  [57FAED9D]  (AR v2)
     Копирование... OK
Трек  7
     Имя файла G:\ AC_DC ?– Platinum Hits\07 - Shake Your Foundations.wav
     Пиковый уровень 85.7 %
     Скорость извлечения 7.1 X
     Качество трека 100.0 %
     CRC теста 4A4C6EA3
     CRC копии 4A4C6EA3
     Точное извлечение (достоверность 1)  [C012718A]  (AR v2)
     Копирование... OK
Трек  8
     Имя файла G:\ AC_DC ?– Platinum Hits\08 - Heatseeker.wav
     Пиковый уровень 76.9 %
     Скорость извлечения 7.2 X
     Качество трека 100.0 %
     CRC теста 5F6B6192
     CRC копии 5F6B6192
     Точное извлечение (достоверность 1)  [0A8CB99B]  (AR v2)
     Копирование... OK
Трек  9
     Имя файла G:\ AC_DC ?– Platinum Hits\09 - Whole Lotta Rosie.wav
     Пиковый уровень 91.9 %
     Скорость извлечения 7.2 X
     Качество трека 99.9 %
     CRC теста 4BAA83F5
     CRC копии 4BAA83F5
     Точное извлечение (достоверность 1)  [296310B0]  (AR v2)
     Копирование... OK
Трек 10
     Имя файла G:\ AC_DC ?– Platinum Hits\10 - If You Want Blood (You've Got It).wav
     Пиковый уровень 82.4 %
     Скорость извлечения 8.0 X
     Качество трека 100.0 %
     CRC теста A6C282C2
     CRC копии A6C282C2
     Точное извлечение (достоверность 1)  [3342B707]  (AR v2)
     Копирование... OK
Трек 11
     Имя файла G:\ AC_DC ?– Platinum Hits\11 - You Shook Me All Night Long.wav
     Пиковый уровень 79.0 %
     Скорость извлечения 7.0 X
     Качество трека 99.9 %
     CRC теста 0C27661B
     CRC копии 0C27661B
     Точное извлечение (достоверность 1)  [154ED03A]  (AR v2)
     Копирование... OK
Трек 12
     Имя файла G:\ AC_DC ?– Platinum Hits\12 - Thunderstruck.wav
     Пиковый уровень 89.0 %
     Скорость извлечения 7.7 X
     Качество трека 99.9 %
     CRC теста 56E1C2EB
     CRC копии 56E1C2EB
     Точное извлечение (достоверность 1)  [B7C49CC5]  (AR v2)
     Копирование... OK
Трек 13
     Имя файла G:\ AC_DC ?– Platinum Hits\13 - Nervous Shakedown.wav
     Пиковый уровень 79.0 %
     Скорость извлечения 8.7 X
     Качество трека 100.0 %
     CRC теста 08BA9F26
     CRC копии 08BA9F26
     Точное извлечение (достоверность 1)  [AC61E3C7]  (AR v2)
     Копирование... OK
Трек 14
     Имя файла G:\ AC_DC ?– Platinum Hits\14 - Rock'N'Roll Damnation.wav
     Пиковый уровень 86.9 %
     Скорость извлечения 8.7 X
     Качество трека 100.0 %
     CRC теста F6A5849F
     CRC копии F6A5849F
     Точное извлечение (достоверность 1)  [B7C902ED]  (AR v2)
     Копирование... OK
Трек 15
     Имя файла G:\ AC_DC ?– Platinum Hits\15 - Ballbreaker.wav
     Пиковый уровень 77.4 %
     Скорость извлечения 8.1 X
     Качество трека 99.9 %
     CRC теста A2274D5A
     CRC копии A2274D5A
     Точное извлечение (достоверность 1)  [504E259F]  (AR v2)
     Копирование... OK
Трек 16
     Имя файла G:\ AC_DC ?– Platinum Hits\16 - Kicked In The Teeth.wav
     Пиковый уровень 86.8 %
     Скорость извлечения 1.0 X
     Качество трека 100.0 %
     CRC теста 914156FE
     CRC копии 914156FE
     Точное извлечение (достоверность 1)  [736F3CA1]  (AR v2)
     Копирование... OK
Трек 17
     Имя файла G:\ AC_DC ?– Platinum Hits\17 - Rocker.wav
     Пиковый уровень 99.8 %
     Скорость извлечения 0.9 X
     Качество трека 100.0 %
     CRC теста 9EF72CA8
     CRC копии 9EF72CA8
     Точное извлечение (достоверность 1)  [7DB28190]  (AR v2)
     Копирование... OK
Трек 18
     Имя файла G:\ AC_DC ?– Platinum Hits\18 - Landslide.wav
     Пиковый уровень 98.4 %
     Скорость извлечения 1.0 X
     Качество трека 100.0 %
     CRC теста 511857E2
     CRC копии 511857E2
     Точное извлечение (достоверность 1)  [A14EB9D3]  (AR v2)
     Копирование... OK
Все треки извлечены точно
Ошибок не произошло
Конец отчёта

CD 2

Exact Audio Copy V1.0 beta 3 from 29. August 2011
Отчёт EAC об извлечении, выполненном 2. июня 2015, 0:39
AC-DC / Platinum Hits
Дисковод: PIONEER DVD-RW  DVR-115D   Adapter: 1  ID: 0
Режим чтения                 : Достоверность
Использование точного потока : Да
Отключение кэша аудио        : Да
Использование указателей C2  : Нет
Коррекция смещения при чтении                     : 48
Способность читать области Lead-in и Lead-out     : Нет
Заполнение пропущенных сэмплов тишиной            : Да
Удаление блоков с тишиной в начале и конце        : Нет
При вычислениях CRC использовались нулевые сэмплы : Да
Интерфейс                                         : Встроенный Win32-интерфейс для Win NT/2000
Обработка зазоров                                 : Добавлено к предыдущему треку
Выходной формат          : Пользовательский кодировщик
Выбранный битрейт        : 128 kBit/s
Качество                 : Высокий
Добавление ID3-тега      : Нет
Утилита сжатия           : C:\Program Files\FLAC\flac.exe
Дополнительные параметры : -V -8 -T "Genre=%genre%" -T "Artist=%artist%" -T "Title=%title%" -T "Album=%albumtitle%" -T "Date=%year%" -T "Tracknumber=%tracknr%" -T "Comment=%comment%" %source%
TOC извлечённого CD
     Трек |   Старт  | Длительность | Начальный сектор | Конечный сектор
    ---------------------------------------------------------------------
       1  |  0:00.00 |    4:22.69   |           0      |      19718
       2  |  4:22.69 |    4:29.59   |       19719      |      39952
       3  |  8:52.53 |    4:15.41   |       39953      |      59118
       4  | 13:08.19 |    3:47.36   |       59119      |      76179
       5  | 16:55.55 |    4:31.61   |       76180      |      96565
       6  | 21:27.41 |    6:06.08   |       96566      |     124023
       7  | 27:33.49 |    3:26.28   |      124024      |     139501
       8  | 31:00.02 |    4:13.41   |      139502      |     158517
       9  | 35:13.43 |    5:46.52   |      158518      |     184519
      10  | 41:00.20 |    3:27.01   |      184520      |     200045
      11  | 44:27.21 |    3:34.52   |      200046      |     216147
      12  | 48:01.73 |    4:38.68   |      216148      |     237065
      13  | 52:40.66 |    3:44.45   |      237066      |     253910
      14  | 56:25.36 |    4:10.01   |      253911      |     272661
      15  | 60:35.37 |    3:34.13   |      272662      |     288724
      16  | 64:09.50 |    4:12.54   |      288725      |     307678
      17  | 68:22.29 |    2:56.70   |      307679      |     320948
      18  | 71:19.24 |    2:38.38   |      320949      |     332836
Трек  1
     Имя файла G:\ AC_DC ?– Platinum Hits\CD2\01 - Big Gun.wav
     Длина предзазора  0:00:02.00
     Пиковый уровень 77.2 %
     Скорость извлечения 4.2 X
     Качество трека 99.9 %
     CRC теста 62238559
     CRC копии 62238559
     Точное извлечение (достоверность 1)  [1272021C]  (AR v2)
     Копирование... OK
Трек  2
     Имя файла G:\ AC_DC ?– Platinum Hits\CD2\02 - Touch To Much.wav
     Длина предзазора  0:00:03.00
     Пиковый уровень 91.1 %
     Скорость извлечения 5.2 X
     Качество трека 100.0 %
     CRC теста EDBB4D7B
     CRC копии EDBB4D7B
     Точное извлечение (достоверность 1)  [EB0974D9]  (AR v2)
     Копирование... OK
Трек  3
     Имя файла G:\ AC_DC ?– Platinum Hits\CD2\03 - Rock'N'Roll.wav
     Длина предзазора  0:00:03.00
     Пиковый уровень 78.2 %
     Скорость извлечения 5.6 X
     Качество трека 100.0 %
     CRC теста 06890004
     CRC копии 06890004
     Точное извлечение (достоверность 1)  [70183D0F]  (AR v2)
     Копирование... OK
Трек  4
     Имя файла G:\ AC_DC ?– Platinum Hits\CD2\04 - Mony Talks.wav
     Длина предзазора  0:00:03.00
     Пиковый уровень 84.7 %
     Скорость извлечения 5.8 X
     Качество трека 100.0 %
     CRC теста 1F85B7B0
     CRC копии 1F85B7B0
     Точное извлечение (достоверность 1)  [0E9D781C]  (AR v2)
     Копирование... OK
Трек  5
     Имя файла G:\ AC_DC ?– Platinum Hits\CD2\05 - Hard As A Rock.wav
     Длина предзазора  0:00:03.00
     Пиковый уровень 78.1 %
     Скорость извлечения 6.4 X
     Качество трека 100.0 %
     CRC теста 88920E73
     CRC копии 88920E73
     Точное извлечение (достоверность 1)  [DE04309F]  (AR v2)
     Копирование... OK
Трек  6
     Имя файла G:\ AC_DC ?– Platinum Hits\CD2\06 - Let There Be Rock.wav
     Длина предзазора  0:00:03.00
     Пиковый уровень 85.7 %
     Скорость извлечения 7.0 X
     Качество трека 100.0 %
     CRC теста AA56CA21
     CRC копии AA56CA21
     Точное извлечение (достоверность 1)  [9CCE9978]  (AR v2)
     Копирование... OK
Трек  7
     Имя файла G:\ AC_DC ?– Platinum Hits\CD2\07 - Dog Eat Dog.wav
     Длина предзазора  0:00:03.00
     Пиковый уровень 80.1 %
     Скорость извлечения 0.9 X
     Качество трека 100.0 %
     CRC теста F7DDB56D
     CRC копии F7DDB56D
     Точное извлечение (достоверность 1)  [89AC3594]  (AR v2)
     Копирование... OK
Трек  8
     Имя файла G:\ AC_DC ?– Platinum Hits\CD2\08 - Back In Black.wav
     Длина предзазора  0:00:03.00
     Пиковый уровень 90.5 %
     Скорость извлечения 7.3 X
     Качество трека 100.0 %
     CRC теста 254FB441
     CRC копии 254FB441
     Точное извлечение (достоверность 1)  [AD8B0A7C]  (AR v2)
     Копирование... OK
Трек  9
     Имя файла G:\ AC_DC ?– Platinum Hits\CD2\09 - For Those About To.wav
     Длина предзазора  0:00:03.00
     Пиковый уровень 92.6 %
     Скорость извлечения 7.9 X
     Качество трека 100.0 %
     CRC теста BAB1DA1E
     CRC копии BAB1DA1E
     Точное извлечение (достоверность 1)  [12390559]  (AR v2)
     Копирование... OK
Трек 10
     Имя файла G:\ AC_DC ?– Platinum Hits\CD2\10 - Who Made Who.wav
     Длина предзазора  0:00:03.00
     Пиковый уровень 88.8 %
     Скорость извлечения 0.9 X
     Качество трека 100.0 %
     CRC теста 98EA8C90
     CRC копии 98EA8C90
     Точное извлечение (достоверность 1)  [382C1A39]  (AR v2)
     Копирование... OK
Трек 11
     Имя файла G:\ AC_DC ?– Platinum Hits\CD2\11 - T.N.T..wav
     Длина предзазора  0:00:03.00
     Пиковый уровень 80.5 %
     Скорость извлечения 0.9 X
     Качество трека 100.0 %
     CRC теста 3FF5788C
     CRC копии 3FF5788C
     Точное извлечение (достоверность 1)  [B0814D67]  (AR v2)
     Копирование... OK
Трек 12
     Имя файла G:\ AC_DC ?– Platinum Hits\CD2\12 - Jailbreak.wav
     Длина предзазора  0:00:03.00
     Пиковый уровень 89.7 %
     Скорость извлечения 1.0 X
     Качество трека 100.0 %
     CRC теста AE6FE53B
     CRC копии AE6FE53B
     Точное извлечение (достоверность 1)  [DDC325B0]  (AR v2)
     Копирование... OK
Трек 13
     Имя файла G:\ AC_DC ?– Platinum Hits\CD2\13 - Fly On The Wall.wav
     Длина предзазора  0:00:03.00
     Пиковый уровень 87.7 %
     Скорость извлечения 1.0 X
     Качество трека 100.0 %
     CRC теста 9C1E54E1
     CRC копии 9C1E54E1
     Точное извлечение (достоверность 1)  [5295C2A1]  (AR v2)
     Копирование... OK
Трек 14
     Имя файла G:\ AC_DC ?– Platinum Hits\CD2\14 - Mean Streak.wav
     Длина предзазора  0:00:03.00
     Пиковый уровень 91.9 %
     Скорость извлечения 0.8 X
     Качество трека 99.9 %
     CRC теста D40DE02D
     CRC копии D40DE02D
     Точное извлечение (достоверность 1)  [8C4B9668]  (AR v2)
     Копирование... OK
Трек 15
     Имя файла G:\ AC_DC ?– Platinum Hits\CD2\15 - Given The Dog A Bone.wav
     Длина предзазора  0:00:03.00
     Пиковый уровень 82.4 %
     Скорость извлечения 1.0 X
     Качество трека 100.0 %
     CRC теста 6D1E9F61
     CRC копии 6D1E9F61
     Точное извлечение (достоверность 1)  [A11FCEEE]  (AR v2)
     Копирование... OK
Трек 16
     Имя файла G:\ AC_DC ?– Platinum Hits\CD2\16 - Can I Sit Next To You Girl.wav
     Длина предзазора  0:00:03.00
     Пиковый уровень 93.3 %
     Скорость извлечения 1.0 X
     Качество трека 100.0 %
     CRC теста 04E55672
     CRC копии 04E55672
     Точное извлечение (достоверность 1)  [55050257]  (AR v2)
     Копирование... OK
Трек 17
     Имя файла G:\ AC_DC ?– Platinum Hits\CD2\17 - Fire Your Guns.wav
     Длина предзазора  0:00:03.00
     Пиковый уровень 98.8 %
     Скорость извлечения 0.8 X
     Качество трека 99.9 %
     CRC теста 3D71E115
     CRC копии 3D71E115
     Точное извлечение (достоверность 1)  [6D91C8E9]  (AR v2)
     Копирование... OK
Трек 18
     Имя файла G:\ AC_DC ?– Platinum Hits\CD2\18 - Big Balls.wav
     Длина предзазора  0:00:03.00
     Пиковый уровень 99.1 %
     Скорость извлечения 0.9 X
     Качество трека 100.0 %
     CRC теста 372C0E93
     CRC копии 372C0E93
     Точное извлечение (достоверность 1)  [86F3DAA9]  (AR v2)
     Копирование... OK
Все треки извлечены точно
Ошибок не произошло
Конец отчёта

Индексная карта (non-compilant .cue)

CD 1

REM GENRE "Hard Rock"
REM DATE 2000
REM DISCID 02122212
REM COMMENT "ExactAudioCopy v1.0b3"
PERFORMER "AC-DC"
TITLE "Platinum Hits CD1"
FILE "01 - Highway To Hell.wav" WAVE
  TRACK 01 AUDIO
    TITLE "Highway To Hell"
    PERFORMER "AC-DC"
    INDEX 01 00:00:00
FILE "02 - Hell's Bells.wav" WAVE
  TRACK 02 AUDIO
    TITLE "Hell's Bells"
    PERFORMER "AC-DC"
    INDEX 01 00:00:00
FILE "03 - Are You Ready.wav" WAVE
  TRACK 03 AUDIO
    TITLE "Are You Ready"
    PERFORMER "AC-DC"
    INDEX 01 00:00:00
FILE "04 - Hail Caesar.wav" WAVE
  TRACK 04 AUDIO
    TITLE "Hail Caesar"
    PERFORMER "AC-DC"
    INDEX 01 00:00:00
FILE "05 - Dirty Deeds Done Dirt Cheap.wav" WAVE
  TRACK 05 AUDIO
    TITLE "Dirty Deeds Done Dirt Cheap"
    PERFORMER "AC-DC"
    INDEX 01 00:00:00
FILE "06 - The Jack.wav" WAVE
  TRACK 06 AUDIO
    TITLE "The Jack"
    PERFORMER "AC-DC"
    INDEX 01 00:00:00
FILE "07 - Shake Your Foundations.wav" WAVE
  TRACK 07 AUDIO
    TITLE "Shake Your Foundations"
    PERFORMER "AC-DC"
    INDEX 01 00:00:00
FILE "08 - Heatseeker.wav" WAVE
  TRACK 08 AUDIO
    TITLE "Heatseeker"
    PERFORMER "AC-DC"
    INDEX 01 00:00:00
FILE "09 - Whole Lotta Rosie.wav" WAVE
  TRACK 09 AUDIO
    TITLE "Whole Lotta Rosie"
    PERFORMER "AC-DC"
    INDEX 01 00:00:00
FILE "10 - If You Want Blood (You've Got It).wav" WAVE
  TRACK 10 AUDIO
    TITLE "If You Want Blood (You've Got It)"
    PERFORMER "AC-DC"
    INDEX 01 00:00:00
FILE "11 - You Shook Me All Night Long.wav" WAVE
  TRACK 11 AUDIO
    TITLE "You Shook Me All Night Long"
    PERFORMER "AC-DC"
    INDEX 01 00:00:00
FILE "12 - Thunderstruck.wav" WAVE
  TRACK 12 AUDIO
    TITLE "Thunderstruck"
    PERFORMER "AC-DC"
    INDEX 01 00:00:00
FILE "13 - Nervous Shakedown.wav" WAVE
  TRACK 13 AUDIO
    TITLE "Nervous Shakedown"
    PERFORMER "AC-DC"
    INDEX 01 00:00:00
FILE "14 - Rock'N'Roll Damnation.wav" WAVE
  TRACK 14 AUDIO
    TITLE "Rock'N'Roll Damnation"
    PERFORMER "AC-DC"
    INDEX 01 00:00:00
FILE "15 - Ballbreaker.wav" WAVE
  TRACK 15 AUDIO
    TITLE "Ballbreaker"
    PERFORMER "AC-DC"
    INDEX 01 00:00:00
FILE "16 - Kicked In The Teeth.wav" WAVE
  TRACK 16 AUDIO
    TITLE "Kicked In The Teeth"
    PERFORMER "AC-DC"
    INDEX 01 00:00:00
FILE "17 - Rocker.wav" WAVE
  TRACK 17 AUDIO
    TITLE "Rocker"
    PERFORMER "AC-DC"
    INDEX 01 00:00:00
FILE "18 - Landslide.wav" WAVE
  TRACK 18 AUDIO
    TITLE "Landslide"
    PERFORMER "AC-DC"
    INDEX 01 00:00:00

CD 2

REM GENRE "Hard Rock"
REM DATE 2000
REM DISCID 0A115512
REM COMMENT "ExactAudioCopy v1.0b3"
PERFORMER "AC-DC"
TITLE "Platinum Hits"
FILE "01 - Big Gun.wav" WAVE
  TRACK 01 AUDIO
    TITLE "Big Gun"
    PERFORMER "AC-DC"
    INDEX 01 00:00:00
  TRACK 02 AUDIO
    TITLE "Touch To Much"
    PERFORMER "AC-DC"
    INDEX 00 04:19:69
FILE "02 - Touch To Much.wav" WAVE
    INDEX 01 00:00:00
  TRACK 03 AUDIO
    TITLE "Rock'N'Roll"
    PERFORMER "AC-DC"
    INDEX 00 04:26:59
FILE "03 - Rock'N'Roll.wav" WAVE
    INDEX 01 00:00:00
  TRACK 04 AUDIO
    TITLE "Mony Talks"
    PERFORMER "AC-DC"
    INDEX 00 04:12:41
FILE "04 - Mony Talks.wav" WAVE
    INDEX 01 00:00:00
  TRACK 05 AUDIO
    TITLE "Hard As A Rock"
    PERFORMER "AC-DC"
    INDEX 00 03:44:36
FILE "05 - Hard As A Rock.wav" WAVE
    INDEX 01 00:00:00
  TRACK 06 AUDIO
    TITLE "Let There Be Rock"
    PERFORMER "AC-DC"
    INDEX 00 04:28:61
FILE "06 - Let There Be Rock.wav" WAVE
    INDEX 01 00:00:00
  TRACK 07 AUDIO
    TITLE "Dog Eat Dog"
    PERFORMER "AC-DC"
    INDEX 00 06:03:08
FILE "07 - Dog Eat Dog.wav" WAVE
    INDEX 01 00:00:00
  TRACK 08 AUDIO
    TITLE "Back In Black"
    PERFORMER "AC-DC"
    INDEX 00 03:23:28
FILE "08 - Back In Black.wav" WAVE
    INDEX 01 00:00:00
  TRACK 09 AUDIO
    TITLE "For Those About To"
    PERFORMER "AC-DC"
    INDEX 00 04:10:41
FILE "09 - For Those About To.wav" WAVE
    INDEX 01 00:00:00
  TRACK 10 AUDIO
    TITLE "Who Made Who"
    PERFORMER "AC-DC"
    INDEX 00 05:43:52
FILE "10 - Who Made Who.wav" WAVE
    INDEX 01 00:00:00
  TRACK 11 AUDIO
    TITLE "T.N.T."
    PERFORMER "AC-DC"
    INDEX 00 03:24:01
FILE "11 - T.N.T..wav" WAVE
    INDEX 01 00:00:00
  TRACK 12 AUDIO
    TITLE "Jailbreak"
    PERFORMER "AC-DC"
    INDEX 00 03:31:52
FILE "12 - Jailbreak.wav" WAVE
    INDEX 01 00:00:00
  TRACK 13 AUDIO
    TITLE "Fly On The Wall"
    PERFORMER "AC-DC"
    INDEX 00 04:35:68
FILE "13 - Fly On The Wall.wav" WAVE
    INDEX 01 00:00:00
  TRACK 14 AUDIO
    TITLE "Mean Streak"
    PERFORMER "AC-DC"
    INDEX 00 03:41:45
FILE "14 - Mean Streak.wav" WAVE
    INDEX 01 00:00:00
  TRACK 15 AUDIO
    TITLE "Given The Dog A Bone"
    PERFORMER "AC-DC"
    INDEX 00 04:07:01
FILE "15 - Given The Dog A Bone.wav" WAVE
    INDEX 01 00:00:00
  TRACK 16 AUDIO
    TITLE "Can I Sit Next To You Girl"
    PERFORMER "AC-DC"
    INDEX 00 03:31:13
FILE "16 - Can I Sit Next To You Girl.wav" WAVE
    INDEX 01 00:00:00
  TRACK 17 AUDIO
    TITLE "Fire Your Guns"
    PERFORMER "AC-DC"
    INDEX 00 04:09:54
FILE "17 - Fire Your Guns.wav" WAVE
    INDEX 01 00:00:00
  TRACK 18 AUDIO
    TITLE "Big Balls"
    PERFORMER "AC-DC"
    INDEX 00 02:53:70
FILE "18 - Big Balls.wav" WAVE
    INDEX 01 00:00:00

Лог Audiochecker

CD 1

AUDIOCHECKER v2.0 beta (build 457) - by Dester - opdester@freemail.hu
~~~~~~~~~~~~~~~~~~~~~~~~~~~~~~~~~~
Started at: четверг, 04. 06. 2015. - 10:31.04
18 files found
01 -===- D:\Torrent files\AC_DC - Platinum Hits\CD1\01 - Highway To Hell.flac
  Extracted successfully
  Conclusion: this track is CDDA with probability 100%
  Tempfile successfully deleted.
02 -===- D:\Torrent files\AC_DC - Platinum Hits\CD1\02 - Hell's Bells.flac
  Extracted successfully
  Conclusion: this track is CDDA with probability 100%
  Tempfile successfully deleted.
03 -===- D:\Torrent files\AC_DC - Platinum Hits\CD1\03 - Are You Ready.flac
  Extracted successfully
  Conclusion: this track is CDDA with probability 100%
  Tempfile successfully deleted.
04 -===- D:\Torrent files\AC_DC - Platinum Hits\CD1\04 - Hail Caesar.flac
  Extracted successfully
  Conclusion: this track is CDDA with probability 99%
  Tempfile successfully deleted.
05 -===- D:\Torrent files\AC_DC - Platinum Hits\CD1\05 - Dirty Deeds Done Dirt Cheap.flac
  Extracted successfully
  Conclusion: this track is CDDA with probability 100%
  Tempfile successfully deleted.
06 -===- D:\Torrent files\AC_DC - Platinum Hits\CD1\06 - The Jack.flac
  Extracted successfully
  Conclusion: this track is CDDA with probability 100%
  Tempfile successfully deleted.
07 -===- D:\Torrent files\AC_DC - Platinum Hits\CD1\07 - Shake Your Foundations.flac
  Extracted successfully
  Conclusion: this track is CDDA with probability 100%
  Tempfile successfully deleted.
08 -===- D:\Torrent files\AC_DC - Platinum Hits\CD1\08 - Heatseeker.flac
  Extracted successfully
  Conclusion: this track is CDDA with probability 100%
  Tempfile successfully deleted.
09 -===- D:\Torrent files\AC_DC - Platinum Hits\CD1\09 - Whole Lotta Rosie.flac
  Extracted successfully
  Conclusion: this track is CDDA with probability 99%
  Tempfile successfully deleted.
10 -===- D:\Torrent files\AC_DC - Platinum Hits\CD1\10 - If You Want Blood (You've Got It).flac
  Extracted successfully
  Conclusion: this track is CDDA with probability 100%
  Tempfile successfully deleted.
11 -===- D:\Torrent files\AC_DC - Platinum Hits\CD1\11 - You Shook Me All Night Long.flac
  Extracted successfully
  Conclusion: this track is CDDA with probability 100%
  Tempfile successfully deleted.
12 -===- D:\Torrent files\AC_DC - Platinum Hits\CD1\12 - Thunderstruck.flac
  Extracted successfully
  Conclusion: this track is CDDA with probability 100%
  Tempfile successfully deleted.
13 -===- D:\Torrent files\AC_DC - Platinum Hits\CD1\13 - Nervous Shakedown.flac
  Extracted successfully
  Conclusion: this track is CDDA with probability 100%
  Tempfile successfully deleted.
14 -===- D:\Torrent files\AC_DC - Platinum Hits\CD1\14 - Rock'N'Roll Damnation.flac
  Extracted successfully
  Conclusion: this track is CDDA with probability 100%
  Tempfile successfully deleted.
15 -===- D:\Torrent files\AC_DC - Platinum Hits\CD1\15 - Ballbreaker.flac
  Extracted successfully
  Conclusion: this track is CDDA with probability 99%
  Tempfile successfully deleted.
16 -===- D:\Torrent files\AC_DC - Platinum Hits\CD1\16 - Kicked In The Teeth.flac
  Extracted successfully
  Conclusion: this track is CDDA with probability 100%
  Tempfile successfully deleted.
17 -===- D:\Torrent files\AC_DC - Platinum Hits\CD1\17 - Rocker.flac
  Extracted successfully
  Conclusion: this track is CDDA with probability 100%
  Tempfile successfully deleted.
18 -===- D:\Torrent files\AC_DC - Platinum Hits\CD1\18 - Landslide.flac
  Extracted successfully
  Conclusion: this track is CDDA with probability 100%
  Tempfile successfully deleted.
Finished at: четверг, 04. 06. 2015. - 10:35.52 (operation time: 0:04.48)

CD 2

AUDIOCHECKER v2.0 beta (build 457) - by Dester - opdester@freemail.hu
~~~~~~~~~~~~~~~~~~~~~~~~~~~~~~~~~~
Started at: четверг, 04. 06. 2015. - 10:36.42
18 files found
01 -===- D:\Torrent files\AC_DC - Platinum Hits\CD2\01 - Big Gun.flac
  Extracted successfully
  Conclusion: this track is CDDA with probability 100%
  Tempfile successfully deleted.
02 -===- D:\Torrent files\AC_DC - Platinum Hits\CD2\02 - Touch To Much.flac
  Extracted successfully
  Conclusion: this track is CDDA with probability 100%
  Tempfile successfully deleted.
03 -===- D:\Torrent files\AC_DC - Platinum Hits\CD2\03 - Rock'N'Roll.flac
  Extracted successfully
  Conclusion: this track is CDDA with probability 100%
  Tempfile successfully deleted.
04 -===- D:\Torrent files\AC_DC - Platinum Hits\CD2\04 - Mony Talks.flac
  Extracted successfully
  Conclusion: this track is CDDA with probability 100%
  Tempfile successfully deleted.
05 -===- D:\Torrent files\AC_DC - Platinum Hits\CD2\05 - Hard As A Rock.flac
  Extracted successfully
  Conclusion: this track is CDDA with probability 100%
  Tempfile successfully deleted.
06 -===- D:\Torrent files\AC_DC - Platinum Hits\CD2\06 - Let There Be Rock.flac
  Extracted successfully
  Conclusion: this track is CDDA with probability 100%
  Tempfile successfully deleted.
07 -===- D:\Torrent files\AC_DC - Platinum Hits\CD2\07 - Dog Eat Dog.flac
  Extracted successfully
  Conclusion: this track is CDDA with probability 100%
  Tempfile successfully deleted.
08 -===- D:\Torrent files\AC_DC - Platinum Hits\CD2\08 - Back In Black.flac
  Extracted successfully
  Conclusion: this track is CDDA with probability 100%
  Tempfile successfully deleted.
09 -===- D:\Torrent files\AC_DC - Platinum Hits\CD2\09 - For Those About To.flac
  Extracted successfully
  Conclusion: this track is CDDA with probability 100%
  Tempfile successfully deleted.
10 -===- D:\Torrent files\AC_DC - Platinum Hits\CD2\10 - Who Made Who.flac
  Extracted successfully
  Conclusion: this track is CDDA with probability 99%
  Tempfile successfully deleted.
11 -===- D:\Torrent files\AC_DC - Platinum Hits\CD2\11 - T.N.T..flac
  Extracted successfully
  Conclusion: this track is CDDA with probability 100%
  Tempfile successfully deleted.
12 -===- D:\Torrent files\AC_DC - Platinum Hits\CD2\12 - Jailbreak.flac
  Extracted successfully
  Conclusion: this track is CDDA with probability 100%
  Tempfile successfully deleted.
13 -===- D:\Torrent files\AC_DC - Platinum Hits\CD2\13 - Fly On The Wall.flac
  Extracted successfully
  Conclusion: this track is CDDA with probability 100%
  Tempfile successfully deleted.
14 -===- D:\Torrent files\AC_DC - Platinum Hits\CD2\14 - Mean Streak.flac
  Extracted successfully
  Conclusion: this track is MPEG with probability 95%
  Tempfile successfully deleted.
15 -===- D:\Torrent files\AC_DC - Platinum Hits\CD2\15 - Given The Dog A Bone.flac
  Extracted successfully
  Conclusion: this track is CDDA with probability 100%
  Tempfile successfully deleted.
16 -===- D:\Torrent files\AC_DC - Platinum Hits\CD2\16 - Can I Sit Next To You Girl.flac
  Extracted successfully
  Conclusion: this track is CDDA with probability 100%
  Tempfile successfully deleted.
17 -===- D:\Torrent files\AC_DC - Platinum Hits\CD2\17 - Fire Your Guns.flac
  Extracted successfully
  Conclusion: this track is CDDA with probability 100%
  Tempfile successfully deleted.
18 -===- D:\Torrent files\AC_DC - Platinum Hits\CD2\18 - Big Balls.flac
  Extracted successfully
  Conclusion: this track is CDDA with probability 100%
  Tempfile successfully deleted.
Finished at: четверг, 04. 06. 2015. - 10:41.02 (operation time: 0:04.20)
--Не забываем говорить
[Профиль] [ЛС]
Показать сообщения:    

Текущее время: Сегодня 14:27

Часовой пояс: GMT



Вы не можете начинать темы
Вы не можете отвечать на сообщения
Вы не можете редактировать свои сообщения
Вы не можете удалять свои сообщения
Вы не можете голосовать в опросах
Вы не можете прикреплять файлы к сообщениям
Вы не можете скачивать файлы