(Hard Rock) AC/DC - Rock Or Bust - 2014 [FLAC, tracks+.cue, Lossless]

 
Автор Сообщение

sergej644 ®

Пол:

Стаж: 4 года 11 месяцев

Сообщений: 6035

Откуда: Soviet Union



Награды: Нет

Торрент-статистика

Создавать темы 09-Дек-2014 22:06

[Цитировать]

-
AC/DC - Rock Or Bust--Год издания: 2014
Страна: Australian
Жанр: Hard Rock
Продолжительность: 00:34:59-Лейбл издания: Columbia / Sony Music
Формат: FLAC
Битрейт аудио: Lossless
Тип рипа: tracks+.cue
Наличие сканов в содержимом раздачи: да
Источник (релизер): Спасибо, intellect-Трэклист:
01. Rock Or Bust
02. Play Ball
03. Rock The Blues Away
04. Miss Adventure
05. Dogs Of War
06. Got Some Rock & Roll Thunder
07. Hard Times
08. Baptism By Fire
09. Rock The House
10. Sweet Candy
11. Emission Control

Лог создания рипа

Exact Audio Copy V1.0 beta 1 from 15. November 2010
EAC extraction logfile from 28. November 2014, 19:36
AC/DC / Rock Or Bust
Used drive  : ASUS DVDRAM GHB1N   Adapter: 3  ID: 0
Read mode               : Secure
Utilize accurate stream : Yes
Defeat audio cache      : Yes
Make use of C2 pointers : No
Read offset correction                      : 6
Overread into Lead-In and Lead-Out          : No
Fill up missing offset samples with silence : Yes
Delete leading and trailing silent blocks   : No
Null samples used in CRC calculations       : Yes
Used interface                              : Native Win32 interface for Win NT & 2000
Gap handling                                : Appended to previous track
Used output format              : User Defined Encoder
Selected bitrate                : 768 kBit/s
Quality                         : High
Add ID3 tag                     : No
Command line compressor         : C:\Program Files (x86)\Exact Audio Copy\FLAC\FLAC.EXE
Additional command line options : -8 -V -T "ARTIST=%a" -T "TITLE=%t" -T "ALBUM=%g" -T "DATE=%y" -T "TRACKNUMBER=%n" -T "TOTALTRACKS=%x" -T "GENRE=%m" -T "ALBUMARTIST=%v" -T "ALBUM ARTIST=%v" -T "COMMENT=EAC Secure Mode, Test & Copy, AccurateRip, FLAC -8" %s
TOC of the extracted CD
Track |   Start  |  Length  | Start sector | End sector
---------------------------------------------------------
1  |  0:00.00 |  3:03.04 |         0    |    13728
2  |  3:03.04 |  2:47.10 |     13729    |    26263
3  |  5:50.14 |  3:24.28 |     26264    |    41591
4  |  9:14.42 |  2:57.19 |     41592    |    54885
5  | 12:11.61 |  3:35.33 |     54886    |    71043
6  | 15:47.19 |  3:22.44 |     71044    |    86237
7  | 19:09.63 |  2:44.17 |     86238    |    98554
8  | 21:54.05 |  3:30.15 |     98555    |   114319
9  | 25:24.20 |  2:42.63 |    114320    |   126532
10  | 28:07.08 |  3:09.54 |    126533    |   140761
11  | 31:16.62 |  3:41.27 |    140762    |   157363
Track  1
Filename D:\My Rips\ACDC\ACDC - Rock Or Bust (2014) [FLAC] {Columbia 88875034852}\01 - Rock Or Bust.wav
Pre-gap length  0:00:02.00
Peak level 99.3 %
Extraction speed 1.0 X
Track quality 100.0 %
Test CRC 5A349BC2
Copy CRC 5A349BC2
Track not present in AccurateRip database
Copy OK
Track  2
Filename D:\My Rips\ACDC\ACDC - Rock Or Bust (2014) [FLAC] {Columbia 88875034852}\02 - Play Ball.wav
Peak level 99.3 %
Extraction speed 1.0 X
Track quality 100.0 %
Test CRC 65A0BA61
Copy CRC 65A0BA61
Track not present in AccurateRip database
Copy OK
Track  3
Filename D:\My Rips\ACDC\ACDC - Rock Or Bust (2014) [FLAC] {Columbia 88875034852}\03 - Rock The Blues Away.wav
Peak level 99.2 %
Extraction speed 1.2 X
Track quality 100.0 %
Test CRC 3DF415E6
Copy CRC 3DF415E6
Track not present in AccurateRip database
Copy OK
Track  4
Filename D:\My Rips\ACDC\ACDC - Rock Or Bust (2014) [FLAC] {Columbia 88875034852}\04 - Miss Adventure.wav
Peak level 99.3 %
Extraction speed 1.2 X
Track quality 100.0 %
Test CRC 2834379F
Copy CRC 2834379F
Track not present in AccurateRip database
Copy OK
Track  5
Filename D:\My Rips\ACDC\ACDC - Rock Or Bust (2014) [FLAC] {Columbia 88875034852}\05 - Dogs Of War.wav
Peak level 99.3 %
Extraction speed 1.3 X
Track quality 100.0 %
Test CRC 7B51C20B
Copy CRC 7B51C20B
Track not present in AccurateRip database
Copy OK
Track  6
Filename D:\My Rips\ACDC\ACDC - Rock Or Bust (2014) [FLAC] {Columbia 88875034852}\06 - Got Some Rock & Roll Thunder.wav
Peak level 99.3 %
Extraction speed 1.2 X
Track quality 99.9 %
Test CRC 4C6D7576
Copy CRC 4C6D7576
Track not present in AccurateRip database
Copy OK
Track  7
Filename D:\My Rips\ACDC\ACDC - Rock Or Bust (2014) [FLAC] {Columbia 88875034852}\07 - Hard Times.wav
Peak level 99.3 %
Extraction speed 1.4 X
Track quality 100.0 %
Test CRC 2BE47175
Copy CRC 2BE47175
Track not present in AccurateRip database
Copy OK
Track  8
Filename D:\My Rips\ACDC\ACDC - Rock Or Bust (2014) [FLAC] {Columbia 88875034852}\08 - Baptism By Fire.wav
Peak level 99.3 %
Extraction speed 1.3 X
Track quality 99.9 %
Test CRC 7A0939B4
Copy CRC 7A0939B4
Track not present in AccurateRip database
Copy OK
Track  9
Filename D:\My Rips\ACDC\ACDC - Rock Or Bust (2014) [FLAC] {Columbia 88875034852}\09 - Rock The House.wav
Peak level 99.3 %
Extraction speed 1.5 X
Track quality 100.0 %
Test CRC 8AD81634
Copy CRC 8AD81634
Track not present in AccurateRip database
Copy OK
Track 10
Filename D:\My Rips\ACDC\ACDC - Rock Or Bust (2014) [FLAC] {Columbia 88875034852}\10 - Sweet Candy.wav
Peak level 99.3 %
Extraction speed 1.6 X
Track quality 100.0 %
Test CRC A7CBB5E0
Copy CRC A7CBB5E0
Track not present in AccurateRip database
Copy OK
Track 11
Filename D:\My Rips\ACDC\ACDC - Rock Or Bust (2014) [FLAC] {Columbia 88875034852}\11 - Emission Control.wav
Peak level 99.3 %
Extraction speed 1.7 X
Track quality 100.0 %
Test CRC 9C367F48
Copy CRC 9C367F48
Track not present in AccurateRip database
Copy OK
None of the tracks are present in the AccurateRip database
No errors occurred
End of status report
==== Log checksum C7DA819E623FB3D058F2B713571636524E47E6F28B69E4980CECCC5EC6EAF620 ====

Индексная карта (non-compilant .cue)

REM GENRE "Hard Rock"
REM DATE 2014
REM DISCID 9E08320B
REM COMMENT "ExactAudioCopy v1.0b1"
PERFORMER "AC/DC"
TITLE "Rock Or Bust"
FILE "01 - Rock Or Bust.wav" WAVE
TRACK 01 AUDIO
TITLE "Rock Or Bust"
PERFORMER "AC/DC"
INDEX 01 00:00:00
FILE "02 - Play Ball.wav" WAVE
TRACK 02 AUDIO
TITLE "Play Ball"
PERFORMER "AC/DC"
INDEX 01 00:00:00
FILE "03 - Rock The Blues Away.wav" WAVE
TRACK 03 AUDIO
TITLE "Rock The Blues Away"
PERFORMER "AC/DC"
INDEX 01 00:00:00
FILE "04 - Miss Adventure.wav" WAVE
TRACK 04 AUDIO
TITLE "Miss Adventure"
PERFORMER "AC/DC"
INDEX 01 00:00:00
FILE "05 - Dogs Of War.wav" WAVE
TRACK 05 AUDIO
TITLE "Dogs Of War"
PERFORMER "AC/DC"
INDEX 01 00:00:00
FILE "06 - Got Some Rock & Roll Thunder.wav" WAVE
TRACK 06 AUDIO
TITLE "Got Some Rock & Roll Thunder"
PERFORMER "AC/DC"
INDEX 01 00:00:00
FILE "07 - Hard Times.wav" WAVE
TRACK 07 AUDIO
TITLE "Hard Times"
PERFORMER "AC/DC"
INDEX 01 00:00:00
FILE "08 - Baptism By Fire.wav" WAVE
TRACK 08 AUDIO
TITLE "Baptism By Fire"
PERFORMER "AC/DC"
INDEX 01 00:00:00
FILE "09 - Rock The House.wav" WAVE
TRACK 09 AUDIO
TITLE "Rock The House"
PERFORMER "AC/DC"
INDEX 01 00:00:00
FILE "10 - Sweet Candy.wav" WAVE
TRACK 10 AUDIO
TITLE "Sweet Candy"
PERFORMER "AC/DC"
INDEX 01 00:00:00
FILE "11 - Emission Control.wav" WAVE
TRACK 11 AUDIO
TITLE "Emission Control"
PERFORMER "AC/DC"
INDEX 01 00:00:00

Скриншот спектра

-
[Профиль] [ЛС]
Показать сообщения:    

Текущее время: Сегодня 22:37

Часовой пояс: GMT



Вы не можете начинать темы
Вы не можете отвечать на сообщения
Вы не можете редактировать свои сообщения
Вы не можете удалять свои сообщения
Вы не можете голосовать в опросах
Вы не можете прикреплять файлы к сообщениям
Вы не можете скачивать файлы