AC/DC - No Bull 1996 (2008) BDRip 1080p | Режиссерская версия

 
Автор Сообщение

достали все ®

Пол:

Стаж: 1 год 8 месяцев

Сообщений: 6613



Награды: 12 (Подробнее)

Mega Seeder 1 (Количество: 1) Mega Seeder 5 (Количество: 1) Top Releaser 2 (Количество: 1)
Торрент-статистика

Создавать темы 28-Апр-2016 08:15

[Цитировать]

Название: AC/DC - No Bull 1996
Исполнитель: AC/DC
Год выпуска: 2008
Жанр: Hard-Rock
Продолжительность: 02:03:39
Состав:
Брайан Джонсон – вокалист
Ангус Янг – соло-гитарист
Малкольм Янг – ритм-гитарист, бэк-вокал
Клифф Уильямс – бас-гитарист, бэк-вокал
Фил Радд – ударник, перкуссия
Режиссером, снявшим этот концерт в Мадриде 10 июля 1996 года, выступил Дэвид Маллет, известный прежде всего своей работой с The Rolling Stones, Queen и Дэвидом Боуи.
В новой версии добавилась возможность просмотра с фокусом камеры на Ангусе и, разумеется, заново сведенный звук в формате 5.1. Сырая энергия братьев Янгов и скачущего по сцене Брайана Джонсона осталась без изменений; колокольный звон и надувная Рози тоже на месте.
Треклист:
01. Back In Black
02. Shot Down In Flames
03. Thunderstruck
04. Girl's Got Rhythm
05. Hard As A Rock
06. Shoot To Thrill
07. Boogie Man
08. Hail Caesar
09. Hells Bells
10. Dog Eat Dog
11. The Jack
12. Ballbreaker
13. Rock And Roll Ain't Noise Pollution
14. Dirty Deeds Done Dirt Cheap
15. You Shook Me All Night Long
16. Whole Lotta Rosie
17. T.N.T.
18. Let There Be Rock
19. Highway To Hell
20. For Those About To Rock (We Salute You)
Качество: BDRip 1080p
Формат: MKV
Видео кодек: H264
Аудио кодек: AC3, PCM
Видео: MPEG4 Video (H264), 1920x1080, 29.97fps, 12.7 Mbps
Аудио: Dolby AC3, 48000 Hz, 6ch, 640 kbps
Аудио: PCM, 48000 Hz, 2ch, 1536 kbps
Сэмпл

MediaInfo:

General
Unique ID : 242524705965218210640114550979266240627 (0xB6748F3161001FDA9F24149937166073)
Complete name : F:Torrent 22008.AC.DC. No.Bull.1996.renta23.mkv
Format : Matroska
Format version : Version 4 / Version 2
File size : 12.8 GiB
Duration : 2h 3mn
Overall bit rate : 14.9 Mbps
Movie name : 1996 AC DC - No Bull / renta23
Encoded date : UTC 2016-04-27 15:09:43
Writing application : mkvmerge v8.3.0 ('Over the Horizon') 64bit
Writing library : libebml v1.3.1 + libmatroska v1.4.2
Video
ID : 1
Format : AVC
Format/Info : Advanced Video Codec
Format profile : High@L4.1
Format settings, CABAC : Yes
Format settings, ReFrames : 4 frames
Codec ID : V_MPEG4/ISO/AVC
Duration : 2h 3mn
Bit rate : 12.7 Mbps
Width : 1 920 pixels
Height : 1 080 pixels
Display aspect ratio : 16:9
Frame rate mode : Constant
Frame rate : 29.970 (30000/1001) fps
Color space : YUV
Chroma subsampling : 4:2:0
Bit depth : 8 bits
Scan type : Progressive
Bits/(Pixel*Frame) : 0.204
Stream size : 11.0 GiB (85%)
Title : 1996 AC DC - No Bull
Writing library : x264 core 146 r2538 121396c
Encoding settings : cabac=1 / ref=4 / deblock=1:-1:-1 / analyse=0x3:0x133 / me=umh / subme=11 / psy=1 / psy_rd=1.07:0.23 / mixed_ref=1 / me_range=32 / chroma_me=1 / trellis=2 / 8x8dct=1 / cqm=0 / deadzone=21,11 / fast_pskip=0 / chroma_qp_offset=-3 / threads=12 / lookahead_threads=2 / sliced_threads=0 / nr=0 / decimate=1 / interlaced=0 / bluray_compat=0 / constrained_intra=0 / bframes=8 / b_pyramid=2 / b_adapt=2 / b_bias=0 / direct=3 / weightb=1 / open_gop=0 / weightp=2 / keyint=250 / keyint_min=25 / scenecut=40 / intra_refresh=0 / rc=2pass / mbtree=0 / bitrate=12700 / ratetol=1.0 / qcomp=0.60 / qpmin=0 / qpmax=69 / qpstep=4 / cplxblur=20.0 / qblur=0.5 / ip_ratio=1.40 / pb_ratio=1.30 / aq=2:1.00
Default : Yes
Forced : No
Audio #1
ID : 2
Format : AC-3
Format/Info : Audio Coding 3
Mode extension : CM (complete main)
Format settings, Endianness : Big
Codec ID : A_AC3
Duration : 2h 3mn
Bit rate mode : Constant
Bit rate : 640 Kbps
Channel(s) : 6 channels
Channel positions : Front: L C R, Side: L R, LFE
Sampling rate : 48.0 KHz
Frame rate : 31.250 fps (1536 spf)
Compression mode : Lossy
Stream size : 566 MiB (4%)
Title : AC3 5.1
Language : English
Default : Yes
Forced : No
Audio #2
ID : 3
Format : PCM
Codec ID : A_PCM/INT/LIT
Duration : 2h 3mn
Bit rate mode : Constant
Bit rate : 1 536 Kbps
Channel(s) : 2 channels
Sampling rate : 48.0 KHz
Frame rate : 32.000 fps (1500 spf)
Bit depth : 16 bits
Stream size : 1.33 GiB (10%)
Title : PCM Stereo
Language : English
Default : No
Forced : No
Menu
00:00:00.000 : en:Chapter 01
00:01:59.619 : en:Chapter 02
00:06:17.443 : en:Chapter 03
00:09:57.496 : en:Chapter 04
00:15:25.491 : en:Chapter 05
00:19:28.133 : en:Chapter 06
00:24:17.522 : en:Chapter 07
00:29:48.086 : en:Chapter 08
00:40:16.647 : en:Chapter 09
00:45:58.956 : en:Chapter 10
00:52:03.553 : en:Chapter 11
00:56:56.980 : en:Chapter 12
01:03:34.911 : en:Chapter 13
01:08:15.925 : en:Chapter 14
01:13:21.530 : en:Chapter 15
01:18:05.914 : en:Chapter 16
01:22:01.616 : en:Chapter 17
01:27:21.302 : en:Chapter 18
01:31:06.160 : en:Chapter 19
01:47:25.939 : en:Chapter 20
01:51:52.439 : en:Chapter 21
01:59:02.201 : en:Chapter 22

[Профиль] [ЛС]
Кто просматривает тему:

Показать сообщения:    

Текущее время: Сегодня 04:29

Часовой пояс: GMT



Вы не можете начинать темы
Вы не можете отвечать на сообщения
Вы не можете редактировать свои сообщения
Вы не можете удалять свои сообщения
Вы не можете голосовать в опросах
Вы не можете прикреплять файлы к сообщениям
Вы не можете скачивать файлы