ABBA - Super Trouper (1992) [FLAC|Lossless]<Disco, Pop>

 
Автор Сообщение

sergej644 ®

Пол:

Стаж: 4 года 11 месяцев

Сообщений: 6046

Откуда: Soviet Union



Награды: Нет

Торрент-статистика

Создавать темы 24-Дек-2014 23:11

[Цитировать]

-ABBA - Super Trouper (1992)- Год: 1992
Жанр: Disco, Pop
Лейбл: Polydor
Каталог #: POCP-2207
Продолжительность: 00:42:15-Кодек: FLAC
Тип рипа: image + .cue
Битрейт: Lossless-Треклист:
01. Super Trouper (4:13)
02. The Winner Takes It All (4:55)
03. On And On And On (3:41)
04. Andante, Andante (4:40)
05. Me And I (4:56)
06. Happy New Year (4:24)
07. Our Last Summer (4:20)
08. The Piper (3:27)
09. Lay All Your Love On Me (4:36)
10. The Way Old Friends Do (3:03)-

Отчёт ЕАС&#58;

Exact Audio Copy V1.0 beta 3 from 29. August 2011
EAC extraction logfile from 11. December 2013, 1:03
ABBA / Super Trouper
Used drive  : PLEXTOR DVDR   PX-810SA   Adapter: 2  ID: 0
Read mode               : Secure
Utilize accurate stream : Yes
Defeat audio cache      : Yes
Make use of C2 pointers : No
Read offset correction                      : 48
Overread into Lead-In and Lead-Out          : No
Fill up missing offset samples with silence : Yes
Delete leading and trailing silent blocks   : No
Null samples used in CRC calculations       : Yes
Used interface                              : Installed external ASPI interface
Used output format              : User Defined Encoder
Selected bitrate                : 1024 kBit/s
Quality                         : High
Add ID3 tag                     : No
Command line compressor         : C:\Program Files (x86)\Exact Audio Copy\Flac\flac.exe
Additional command line options : -8 -V -T "Date=%year%" -T "Genre=%genre%" -T "COMMENT=ripped by bvstudio®" %source%
TOC of the extracted CD
     Track |   Start  |  Length  | Start sector | End sector
    ---------------------------------------------------------
        1  |  0:00.37 |  4:12.38 |        37    |    18974
        2  |  4:13.00 |  4:55.27 |     18975    |    41126
        3  |  9:08.27 |  3:40.60 |     41127    |    57686
        4  | 12:49.12 |  4:40.00 |     57687    |    78686
        5  | 17:29.12 |  4:56.23 |     78687    |   100909
        6  | 22:25.35 |  4:24.20 |    100910    |   120729
        7  | 26:49.55 |  4:20.22 |    120730    |   140251
        8  | 31:10.02 |  3:27.15 |    140252    |   155791
        9  | 34:37.17 |  4:35.48 |    155792    |   176464
       10  | 39:12.65 |  3:02.47 |    176465    |   190161
Range status and errors
Selected range
     Filename F:\1980 - Super Trouper (1992 - Polydor K.K. Japan - POCP-2207 • P33P-20058)\ABBA - Super Trouper.wav
     Peak level 87.9 %
     Extraction speed 6.7 X
     Range quality 99.9 %
     Test CRC B543CD46
     Copy CRC B543CD46
     Copy OK
No errors occurred
AccurateRip summary
Track  1  not present in database
Track  2  not present in database
Track  3  not present in database
Track  4  not present in database
Track  5  not present in database
Track  6  not present in database
Track  7  not present in database
Track  8  not present in database
Track  9  not present in database
Track 10  not present in database
None of the tracks are present in the AccurateRip database
End of status report
---- CUETools DB Plugin V2.1.5
[CTDB TOCID: 2u87sbS_PemfBs8Vw9fbnVrCl5o-] found
Submit result: already submitted
Track | CTDB Status
  1   | (1/1) Accurately ripped
  2   | (1/1) Accurately ripped
  3   | (1/1) Accurately ripped
  4   | (1/1) Accurately ripped
  5   | (1/1) Accurately ripped
  6   | (1/1) Accurately ripped
  7   | (1/1) Accurately ripped
  8   | (1/1) Accurately ripped
  9   | (1/1) Accurately ripped
10   | (1/1) Accurately ripped
==== Log checksum 71DC8DFEB230E13BAF6B9ACE8B680B8785898A8D16807A6ACE0E187BE408BC3F ====

Отчёт auCDtect Task manager&#58;

-----------------------
DON'T MODIFY THIS FILE
-----------------------
PERFORMER: auCDtect Task Manager, ver. 1.6.0 RC1 build 1.6.0.1
Copyright (c) 2008-2010 y-soft. All rights reserved
http://y-soft.org
ANALYZER: auCDtect: CD records authenticity detector, version 0.8.2
Copyright (c) 2004 Oleg Berngardt. All rights reserved.
Copyright (c) 2004 Alexander Djourik. All rights reserved.
FILE: ABBA - Super Trouper.flac
  Size: 268230428 Hash: 9A9C65B3B5A7AB3B525443EC82CC6C42 Accuracy: -m0
  Conclusion: MPEG 95%
  Signature: BEE091B18E8974D16DF50445354488DD8C23ABD8

Содержание индексной карты (.CUE&#41;

REM GENRE Pop
REM DATE 1980
REM DISCID 7809E70A
REM COMMENT "ExactAudioCopy v1.0b3"
PERFORMER "ABBA"
TITLE "Super Trouper"
FILE "ABBA - Super Trouper.flac" WAVE
  TRACK 01 AUDIO
    TITLE "Super Trouper"
    PERFORMER "ABBA"
    INDEX 00 00:00:00
    INDEX 01 00:00:37
  TRACK 02 AUDIO
    TITLE "The Winner Takes It All"
    PERFORMER "ABBA"
    INDEX 00 04:12:13
    INDEX 01 04:13:00
  TRACK 03 AUDIO
    TITLE "On And On And On"
    PERFORMER "ABBA"
    INDEX 00 09:07:56
    INDEX 01 09:08:27
  TRACK 04 AUDIO
    TITLE "Andante, Andante"
    PERFORMER "ABBA"
    INDEX 01 12:49:12
  TRACK 05 AUDIO
    TITLE "Me And I"
    PERFORMER "ABBA"
    INDEX 01 17:29:12
  TRACK 06 AUDIO
    TITLE "Happy New Year"
    PERFORMER "ABBA"
    INDEX 00 22:24:28
    INDEX 01 22:25:35
  TRACK 07 AUDIO
    TITLE "Our Last Summer"
    PERFORMER "ABBA"
    INDEX 00 26:48:73
    INDEX 01 26:49:55
  TRACK 08 AUDIO
    TITLE "The Piper"
    PERFORMER "ABBA"
    INDEX 00 31:09:56
    INDEX 01 31:10:02
  TRACK 09 AUDIO
    TITLE "Lay All Your Love On Me"
    PERFORMER "ABBA"
    INDEX 00 34:36:66
    INDEX 01 34:37:17
  TRACK 10 AUDIO
    TITLE "The Way Old Friends Do"
    PERFORMER "ABBA"
    INDEX 01 39:12:65

Сверка с АккуратРип

[CUETools log; Date: 30.01.2014 19:59:55; Version: 2.1.4]
Pregap length 00:00:37.
[CTDB TOCID: 2u87sbS_PemfBs8Vw9fbnVrCl5o-] found.
Track | CTDB Status
  1   | (1/1) Accurately ripped
  2   | (1/1) Accurately ripped
  3   | (1/1) Accurately ripped
  4   | (1/1) Accurately ripped
  5   | (1/1) Accurately ripped
  6   | (1/1) Accurately ripped
  7   | (1/1) Accurately ripped
  8   | (1/1) Accurately ripped
  9   | (1/1) Accurately ripped
10   | (1/1) Accurately ripped
[AccurateRip ID: 00107df8-00837af9-7809e70a] found.
Track   [  CRC   |   V2   ] Status
01     [32fe4e0c|de524971] (0+1/1) Accurately ripped
02     [eb90eda7|7763ab7f] (0+1/1) Accurately ripped
03     [99f8b690|6dcf56d9] (0+1/1) Accurately ripped
04     [7f95d97a|2927fbc5] (0+1/1) Accurately ripped
05     [df55051c|405d53bd] (0+1/1) Accurately ripped
06     [4408152f|89d945e9] (0+1/1) Accurately ripped
07     [dbad003d|ee7361d9] (0+1/1) Accurately ripped
08     [6e1b853a|f3be9c60] (0+1/1) Accurately ripped
09     [f5291701|4ecb9419] (0+1/1) Accurately ripped
10     [93e34400|d396a858] (0+1/1) Accurately ripped
Track Peak [ CRC32  ] [W/O NULL] [  LOG   ]
--   87,9 [B543CD46] [30761BE1]   CRC32
01   77,8 [79C42196] [819BCAA1]
02   74,4 [C6043B94] [DD451B78]
03   87,9 [BCC969DF] [B2318FDD]
04   65,2 [B81B6498] [28F6C1CE]
05   75,8 [97584814] [84319FF3]
06   75,3 [ED0BE9A2] [9EC3B5A5]
07   70,4 [E6149277] [967F3953]
08   76,2 [1E3999B3] [03E2BCB6]
09   75,6 [F7E5BE26] [FFF7EE4A]
10   61,8 [AFC022FA] [6C4F4FB4]

Спектр

[Профиль] [ЛС]

Создавать темы 13-Авг-2015 10:42 (спустя 7 месяцев 19 дней)

Топик был перенесен из форума Зарубежная в форум World Pop
sergej644
 
Кто просматривает тему:

Показать сообщения:    

Текущее время: Сегодня 20:46

Часовой пояс: GMT



Вы не можете начинать темы
Вы не можете отвечать на сообщения
Вы не можете редактировать свои сообщения
Вы не можете удалять свои сообщения
Вы не можете голосовать в опросах
Вы не можете прикреплять файлы к сообщениям
Вы не можете скачивать файлы