ABBA - Live (1986) [FLAC|Lossless]<Disco, Pop>

 
Автор Сообщение

sergej644 ®

Пол:

Стаж: 4 года 11 месяцев

Сообщений: 6042

Откуда: Soviet Union



Награды: Нет

Торрент-статистика

Создавать темы 24-Дек-2014 23:11

[Цитировать]

-ABBA - Live (1986)- Год: 1986
Жанр: Disco, Pop
Лейбл: Polydor
Каталог #: 829 951-2
Продолжительность: 01:02:37-Кодек: FLAC
Тип рипа: image + .cue
Битрейт: Lossless-Треклист:
01. Dancing Queen (3:42)
02. Take a Chance on Me (4:23)
03. I Have a Dream (4:23)
04. Does Your Mother Know (4:10)
05. Chiquitita (5:18)
06. Thank You for the Music (3:40)
07. Two for the Price of One (3:32)
08. Fernando (5:22)
09. Gimme! Gimme! Gimme! (A Man After Midnight) (3:18)
10. Super Trouper (4:16)
11. Waterloo (3:34)
12. Money, Money, Money (3:23)
13. The Name of the Game; Eagle (9:37)
14. On and On and On (3:59)-

Отчёт ЕАС&#58;

Exact Audio Copy V1.0 beta 3 from 29. August 2011
Отчёт EAC об извлечении, выполненном 15. октября 2011, 19:02
ABBA / Live
Дисковод: HL-DT-STDVDRAM GH20NS10   Adapter: 3  ID: 1
Режим чтения                 : Достоверность
Использование точного потока : Да
Отключение кэша аудио        : Да
Использование указателей C2  : Нет
Коррекция смещения при чтении                     : 667
Способность читать области Lead-in и Lead-out     : Нет
Заполнение пропущенных сэмплов тишиной            : Да
Удаление блоков с тишиной в начале и конце        : Нет
При вычислениях CRC использовались нулевые сэмплы : Да
Интерфейс                                         : Установленный внешний ASPI-интерфейс
Выходной формат          : Пользовательский кодировщик
Выбранный битрейт        : 896 kBit/s
Качество                 : Высокий
Добавление ID3-тега      : Нет
Утилита сжатия           : C:\Program Files\Exact Audio Copy\Flac\flac.exe
Дополнительные параметры : -V -8 -T "Date=%year%" -T "Genre=%genre%" %source%
TOC извлечённого CD
     Трек |   Старт  | Длительность | Начальный сектор | Конечный сектор
    ---------------------------------------------------------------------
       1  |  0:00.32 |    3:42.13   |          32      |      16694
       2  |  3:42.45 |    4:22.62   |       16695      |      36406
       3  |  8:05.32 |    4:23.13   |       36407      |      56144
       4  | 12:28.45 |    4:09.50   |       56145      |      74869
       5  | 16:38.20 |    5:18.25   |       74870      |      98744
       6  | 21:56.45 |    3:40.25   |       98745      |     115269
       7  | 25:36.70 |    3:31.50   |      115270      |     131144
       8  | 29:08.45 |    5:22.37   |      131145      |     155331
       9  | 34:31.07 |    3:17.45   |      155332      |     170151
      10  | 37:48.52 |    4:15.68   |      170152      |     189344
      11  | 42:04.45 |    3:34.00   |      189345      |     205394
      12  | 45:38.45 |    3:23.00   |      205395      |     220619
      13  | 49:01.45 |    9:37.12   |      220620      |     263906
      14  | 58:38.57 |    3:58.63   |      263907      |     281819
Характеристики диапазона извлечения и сообщения об ошибках
Выбранный диапазон
     Имя файла J:\ABBA - Live (1986) new\ABBA - Live.wav
     Пиковый уровень 89.4 %
     Скорость извлечения 4.7 X
     Качество диапазона 99.9 %
     CRC теста 4B268C5F
     CRC копии 4B268C5F
     Копирование... OK
Ошибок не произошло
AccurateRip: сводка
Трек  1  : извлечено точно (доверие 2)  [C6C5E436]  (AR v2)
Трек  2  : извлечено точно (доверие 2)  [D239AA5A]  (AR v2)
Трек  3  : извлечено точно (доверие 2)  [F324979A]  (AR v2)
Трек  4  : извлечено точно (доверие 2)  [31751749]  (AR v2)
Трек  5  : извлечено точно (доверие 2)  [86F19B14]  (AR v2)
Трек  6  : извлечено точно (доверие 2)  [18DE3B5A]  (AR v2)
Трек  7  : извлечено точно (доверие 2)  [1E521759]  (AR v2)
Трек  8  : извлечено точно (доверие 2)  [FDAA1626]  (AR v2)
Трек  9  : извлечено точно (доверие 2)  [4C05A337]  (AR v2)
Трек 10  : извлечено точно (доверие 2)  [0A89BDD3]  (AR v2)
Трек 11  : извлечено точно (доверие 2)  [7DCC43F1]  (AR v2)
Трек 12  : извлечено точно (доверие 2)  [B8F44AA9]  (AR v2)
Трек 13  : извлечено точно (доверие 2)  [B34766B3]  (AR v2)
Трек 14  : извлечено точно (доверие 2)  [B0C5F2BD]  (AR v2)
Все треки извлечены точно
Конец отчёта
---- CUETools DB Plugin V2.1.3
[CTDB TOCID: BFZ6MiQ2uhJ.zjmQwI27SV5B_cU-] found, Submit result: BFZ6MiQ2uhJ.zjmQwI27SV5B_cU- has been confirmed
[99ced5eb] (20/20) Accurately ripped
==== Контрольная сумма отчёта 1286CA880E732AADF31E1FCD3CB0A75A984A14A320D6CFC95859E4FE1725698E ====

Отчёт auCDtect Task manager&#58;

-----------------------
DON'T MODIFY THIS FILE
-----------------------
PERFORMER: auCDtect Task Manager, ver. 1.6.0 RC1 build 1.6.0.1
Copyright (c) 2008-2010 y-soft. All rights reserved
http://y-soft.org
ANALYZER: auCDtect: CD records authenticity detector, version 0.8.2
Copyright (c) 2004 Oleg Berngardt. All rights reserved.
Copyright (c) 2004 Alexander Djourik. All rights reserved.
FILE: ABBA - Live.flac
  Size: 434305446 Hash: 29419D18421403FA46EC999C495ED004 Accuracy: -m0
  Conclusion: MPEG 95%
  Signature: 9030569D0FD8A7D6CDB0E378E950A1F2B14BB6A9

Содержание индексной карты (.CUE&#41;

REM GENRE Pop
REM DATE 1986
REM DISCID A40EAD0E
REM COMMENT "ExactAudioCopy v1.0b3"
PERFORMER "ABBA"
TITLE "Live"
FILE "ABBA - Live.flac" WAVE
  TRACK 01 AUDIO
    TITLE "Dancing Queen"
    PERFORMER "ABBA"
    INDEX 00 00:00:00
    INDEX 01 00:00:32
  TRACK 02 AUDIO
    TITLE "Take a Chance on Me"
    PERFORMER "ABBA"
    INDEX 01 03:42:45
  TRACK 03 AUDIO
    TITLE "I Have a Dream"
    PERFORMER "ABBA"
    INDEX 01 08:05:32
  TRACK 04 AUDIO
    TITLE "Does Your Mother Know"
    PERFORMER "ABBA"
    INDEX 01 12:28:45
  TRACK 05 AUDIO
    TITLE "Chiquitita"
    PERFORMER "ABBA"
    INDEX 01 16:38:20
  TRACK 06 AUDIO
    TITLE "Thank You for the Music"
    PERFORMER "ABBA"
    INDEX 01 21:56:45
  TRACK 07 AUDIO
    TITLE "Two for the Price of One"
    PERFORMER "ABBA"
    INDEX 01 25:36:70
  TRACK 08 AUDIO
    TITLE "Fernando"
    PERFORMER "ABBA"
    INDEX 01 29:08:45
  TRACK 09 AUDIO
    TITLE "Gimme! Gimme! Gimme! (A Man After Midnight)"
    PERFORMER "ABBA"
    INDEX 01 34:31:07
  TRACK 10 AUDIO
    TITLE "Super Trouper"
    PERFORMER "ABBA"
    INDEX 01 37:48:52
  TRACK 11 AUDIO
    TITLE "Waterloo"
    PERFORMER "ABBA"
    INDEX 01 42:04:45
  TRACK 12 AUDIO
    TITLE "Money, Money, Money"
    PERFORMER "ABBA"
    INDEX 01 45:38:45
  TRACK 13 AUDIO
    TITLE "The Name of the Game; Eagle"
    PERFORMER "ABBA"
    INDEX 01 49:01:45
    INDEX 02 52:13:20
  TRACK 14 AUDIO
    TITLE "On and On and On"
    PERFORMER "ABBA"
    INDEX 01 58:38:57

Сверка с АккуратРип

[CUETools log; Date: 30.01.2014 19:37:27; Version: 2.1.4]
Pregap length 00:00:32.
[CTDB TOCID: BFZ6MiQ2uhJ.zjmQwI27SV5B_cU-] found.
Track | CTDB Status
  1   | (3/3) Accurately ripped
  2   | (1/3) Accurately ripped, or (1/3) differs in 4 samples @04:02:27, or (1/3) differs in 2 samples @04:02:27
  3   | (3/3) Accurately ripped
  4   | (3/3) Accurately ripped
  5   | (3/3) Accurately ripped
  6   | (3/3) Accurately ripped
  7   | (3/3) Accurately ripped
  8   | (3/3) Accurately ripped
  9   | (3/3) Accurately ripped
10   | (3/3) Accurately ripped
11   | (3/3) Accurately ripped
12   | (3/3) Accurately ripped
13   | (3/3) Accurately ripped
14   | (3/3) Accurately ripped
[AccurateRip ID: 001ec288-014a013a-a40ead0e] found.
Track   [  CRC   |   V2   ] Status
01     [b4d55439|c6c5e436] (28+07/48) Accurately ripped
02     [029f12a3|d239aa5a] (27+07/47) Accurately ripped
03     [aef9483f|f324979a] (27+06/46) Accurately ripped
04     [f6eb2503|31751749] (26+07/47) Accurately ripped
05     [c56277c4|86f19b14] (26+07/47) Accurately ripped
06     [334fcaa3|18de3b5a] (28+07/49) Accurately ripped
07     [773e0077|1e521759] (28+07/49) Accurately ripped
08     [d5d5b253|fdaa1626] (26+07/47) Accurately ripped
09     [c9a3ce95|4c05a337] (27+06/47) Accurately ripped
10     [87071949|0a89bdd3] (27+07/47) Accurately ripped
11     [ea1c9cee|7dcc43f1] (27+06/47) Accurately ripped
12     [cdf8bd91|b8f44aa9] (27+06/46) Accurately ripped
13     [c0aa24cb|b34766b3] (26+06/45) Accurately ripped
14     [b2747713|b0c5f2bd] (27+06/46) Accurately ripped
Offsetted by 65:
01     [7752452a] (10/48) Accurately ripped
02     [f6b1c18c] (10/47) Accurately ripped
03     [5fbe11a3] (10/46) Accurately ripped
04     [7fb3c3e6] (11/47) Accurately ripped
05     [987ccff4] (11/47) Accurately ripped
06     [86630807] (11/49) Accurately ripped
07     [0ae38592] (11/49) Accurately ripped
08     [d9763d92] (11/47) Accurately ripped
09     [87d98013] (11/47) Accurately ripped
10     [8cdc8f96] (10/47) Accurately ripped
11     [3cb0afaa] (11/47) Accurately ripped
12     [5f07812f] (10/46) Accurately ripped
13     [eef77578] (10/45) Accurately ripped
14     [4e03e2e1] (10/46) Accurately ripped
Track Peak [ CRC32  ] [W/O NULL] [  LOG   ]
--   89,4 [4B268C5F] [8FF803D1]   CRC32
01   76,7 [B7AEEE21] [475E21E7]
02   73,7 [AEA35176] [FE6AB0EB]
03   59,7 [21D2DDD9] [11FF0502]
04   76,2 [E3C41C7F] [981F1EEA]
05   88,1 [B307DA04] [1EF42167]
06   89,4 [AA97BD80] [350DAB94]
07   76,9 [7D5DC8DE] [3BABCC11]
08   76,4 [D22E53F5] [8E804C72]
09   82,6 [C4CC525A] [FCAD0FA1]
10   77,8 [D22A0333] [295DDC0E]
11   82,6 [38188BF4] [7A715BF8]
12   85,4 [34BF08E5] [FE685648]
13   65,5 [9AA0375E] [E53740F5]
14   60,1 [93FCA2A9] [D5E781F4]

Спектр

[Профиль] [ЛС]

Создавать темы 13-Авг-2015 10:42 (спустя 7 месяцев 19 дней)

Топик был перенесен из форума Зарубежная в форум World Pop
sergej644
 
Кто просматривает тему:

Форум Тема Автор Размер
Музыка других жанров (Music from other genres) (Pop)ABBA - Live At Wembley Arena (2CD)(2014) [MP3, tracks, 320 kbps] sergej644 263 MB
Показать сообщения:    

Текущее время: Сегодня 14:25

Часовой пояс: GMT



Вы не можете начинать темы
Вы не можете отвечать на сообщения
Вы не можете редактировать свои сообщения
Вы не можете удалять свои сообщения
Вы не можете голосовать в опросах
Вы не можете прикреплять файлы к сообщениям
Вы не можете скачивать файлы