(Pop) ABBA - Gracias Por La Musica 1980 (Japanese Edition) - 1986 [FLAC, image +.cue, lossless]

 
Author Message

sergej644 ®

Gender:

Longevity: 7 years 5 months

Posts: 7276

Location: Klaipeda



: 9 ()

Top Seeder 4 (1) Mega Seeder 1 (1) Top Seeder 5 (1)
Торрент-статистика

Post 02-Jan-2019 15:52

[Quote]

-ABBA - Gracias Por La Musica 1980 (Japanese Edition)--
Год издания: 1980
Год переиздания: 1986
Страна: Sweden
Жанр: Pop
Продолжительность: 00:42:58-Лейбл издания: Polydor
Страна-выпуска диска: Japan
Номер по каталогу: P33P-20057-Формат: FLAC
Битрейт аудио: Lossless
Тип рипа: image +.cue
Наличие сканов в содержимом раздачи: да
-

Трэклист


01. Gracias Por La Musica (3:52)
02. Reina Danzante (4:05)
03. Al Andar (4:44)
04. Dame! Dame! Dame! (4:51)
05. Fernando (4:18)
06. Estoy Sonando (4:41)
07. Mamma Mia (3:35)
08. Hasta Manana (3:11)
09. Conociendome, Conociendote (4:05)
10. Chiquitita (5:37)
* все композиции исполняются на испанском языке
-

Лог создания рипа

Exact Audio Copy V0.99 prebeta 5 from 4. May 2009
EAC extraction logfile from 18. July 2014, 13:28
ABBA / Gracias Por La Musica [P33P-20057]
Used drive  : ASUS    DRW-22B3L   Adapter: 0  ID: 1
Read mode               : Secure
Utilize accurate stream : Yes
Defeat audio cache      : Yes
Make use of C2 pointers : No
Read offset correction                      : 6
Overread into Lead-In and Lead-Out          : No
Fill up missing offset samples with silence : Yes
Delete leading and trailing silent blocks   : No
Null samples used in CRC calculations       : Yes
Used interface                              : Native Win32 interface for Win NT & 2000
Used output format : Internal WAV Routines
Sample format      : 44.100 Hz; 16 Bit; Stereo
TOC of the extracted CD
     Track |   Start  |  Length  | Start sector | End sector
    ---------------------------------------------------------
        1  |  0:00.37 |  3:52.00 |        37    |    17436
        2  |  3:52.37 |  4:04.58 |     17437    |    35794
        3  |  7:57.20 |  4:43.72 |     35795    |    57091
        4  | 12:41.17 |  4:51.20 |     57092    |    78936
        5  | 17:32.37 |  4:17.38 |     78937    |    98249
        6  | 21:50.00 |  4:40.52 |     98250    |   119301
        7  | 26:30.52 |  3:35.23 |    119302    |   135449
        8  | 30:06.00 |  3:11.12 |    135450    |   149786
        9  | 33:17.12 |  4:05.08 |    149787    |   168169
       10  | 37:22.20 |  5:36.42 |    168170    |   193411
Range status and errors
Selected range
     Filename D:\ABBA - Gracias Por La Musica [P33P-20057].wav
     Peak level 91.3 %
     Range quality 99.9 %
     Test CRC 895BA36D
     Copy CRC 895BA36D
     Copy OK
No errors occurred
AccurateRip summary
Track  1  accurately ripped (confidence 2)  [FC9916CA]
Track  2  accurately ripped (confidence 2)  [F487356E]
Track  3  accurately ripped (confidence 2)  [D1EEFCBD]
Track  4  accurately ripped (confidence 2)  [99FC1150]
Track  5  accurately ripped (confidence 2)  [43F35B7E]
Track  6  accurately ripped (confidence 2)  [C069A90D]
Track  7  accurately ripped (confidence 2)  [8457692D]
Track  8  accurately ripped (confidence 2)  [51466D97]
Track  9  accurately ripped (confidence 2)  [9B352C68]
Track 10  accurately ripped (confidence 2)  [9DFA679E]
All tracks accurately ripped
End of status report

Индексная карта (non-compilant .cue)

REM GENRE "Pop"
REM DATE 1980
REM DISCID 8A0A120A
REM COMMENT "ExactAudioCopy v0.99pb5"
PERFORMER "ABBA"
TITLE "Gracias Por La Musica [P33P-20057]"
FILE "Abba - Gracias Por La Musica [P33P-20057].flac" WAVE
  TRACK 01 AUDIO
    TITLE "Gracias Por La Musica"
    PERFORMER "ABBA"
    INDEX 00 00:00:00
    INDEX 01 00:00:37
  TRACK 02 AUDIO
    TITLE "Reina Danzante"
    PERFORMER "ABBA"
    INDEX 00 03:51:00
    INDEX 01 03:52:37
  TRACK 03 AUDIO
    TITLE "Al Andar"
    PERFORMER "ABBA"
    INDEX 00 07:57:02
    INDEX 01 07:57:20
  TRACK 04 AUDIO
    TITLE "Dame! Dame! Dame!"
    PERFORMER "ABBA"
    INDEX 00 12:40:37
    INDEX 01 12:41:17
  TRACK 05 AUDIO
    TITLE "Fernando"
    PERFORMER "ABBA"
    INDEX 00 17:30:62
    INDEX 01 17:32:37
  TRACK 06 AUDIO
    TITLE "Estoy Sonando"
    PERFORMER "ABBA"
    INDEX 00 21:49:07
    INDEX 01 21:50:00
  TRACK 07 AUDIO
    TITLE "Mamma Mia"
    PERFORMER "ABBA"
    INDEX 00 26:28:37
    INDEX 01 26:30:52
  TRACK 08 AUDIO
    TITLE "Hasta Manana"
    PERFORMER "ABBA"
    INDEX 00 30:04:22
    INDEX 01 30:06:00
  TRACK 09 AUDIO
    TITLE "Conociendome, Conociendote"
    PERFORMER "ABBA"
    INDEX 00 33:14:57
    INDEX 01 33:17:12
  TRACK 10 AUDIO
    TITLE "Chiquitita"
    PERFORMER "ABBA"
    INDEX 00 37:20:62
    INDEX 01 37:22:20
-

для ознакомления:

https://www.youtube.com/watch?v=do1EGAs_UNQ
--
[Profile] [PM]
Display posts from previous:    

The time now is: Today 03:53

All times are GMT



You cannot post new topics in this forum
You cannot reply to topics in this forum
You cannot edit your posts in this forum
You cannot delete your posts in this forum
You cannot vote in polls in this forum
You cannot attach files in this forum
You cannot download files in this forum