(Pop) Abba - Gold - 40th Anniversary Edition (2014) 3CD FLAC, (Image + cue),Lossless

 
Автор Сообщение

sergej644 ®

Пол:

Стаж: 4 года 11 месяцев

Сообщений: 6040

Откуда: Soviet Union



Награды: Нет

Торрент-статистика

Создавать темы 18-Июл-2014 21:04

[Цитировать]

-Abba - Gold - 40th Anniversary Edition (2014)- Год: 2014
Жанр: Pop
Лейбл: Polar
Каталог: 060253740130
Кодек: FLAC (image+ .cue)
Битрейт: Lossless
Продолжительность: 03:51:54
--

CD1 (Abba Gold)

Трек лист:
01. Dancing Queen
02. Knowing Me, Knowing You
03. Take A Chance On Me
04. Mamma Mia
05. Lay All Your Love On Me
06. Super Trouper
07. I Have A Dream -
08. The Winner Takes It All
09. Money, Money, Money
10. S.O.S
11. Chiquita
12. Fernando
13. Voulez Vous
14. Gimme! Gimme! Gimme! (A Man After Midnight )
15. Does Your Mother Know
16. One Of Us
17. The Name Of The Game
18. Thank You For The Music
19. Waterloo
Продолжительность - 01:19:08

Отчёт ЕАС:

Exact Audio Copy V1.0 beta 3 from 29. August 2011
EAC extraction logfile from 17. May 2014, 6:48
ABBA / Gold (40th Anniversary Edition) CD1 - ABBA Gold
Used drive  : ATAPI   iHAS124   B   Adapter: 1  ID: 0
Read mode               : Secure
Utilize accurate stream : Yes
Defeat audio cache      : Yes
Make use of C2 pointers : No
Read offset correction                      : 6
Overread into Lead-In and Lead-Out          : No
Fill up missing offset samples with silence : Yes
Delete leading and trailing silent blocks   : No
Null samples used in CRC calculations       : Yes
Used interface                              : Installed external ASPI interface
Used output format              : User Defined Encoder
Selected bitrate                : 128 kBit/s
Quality                         : High
Add ID3 tag                     : Yes
Command line compressor         : C:\Program Files (x86)\Exact Audio Copy\Flac\flac.exe
Additional command line options : -V -8 %source%
TOC of the extracted CD
     Track |   Start  |  Length  | Start sector | End sector
    ---------------------------------------------------------
        1  |  0:00.00 |  3:53.07 |         0    |    17481
        2  |  3:53.07 |  4:03.61 |     17482    |    35767
        3  |  7:56.68 |  4:08.61 |     35768    |    54428
        4  | 12:05.54 |  3:32.72 |     54429    |    70400
        5  | 15:38.51 |  4:34.38 |     70401    |    90988
        6  | 20:13.14 |  4:13.59 |     90989    |   110022
        7  | 24:26.73 |  4:45.40 |    110023    |   131437
        8  | 29:12.38 |  4:57.21 |    131438    |   153733
        9  | 34:09.59 |  3:08.59 |    153734    |   167892
       10  | 37:18.43 |  3:23.27 |    167893    |   183144
       11  | 40:41.70 |  5:27.68 |    183145    |   207737
       12  | 46:09.63 |  4:14.57 |    207738    |   226844
       13  | 50:24.45 |  5:08.59 |    226845    |   250003
       14  | 55:33.29 |  4:51.12 |    250004    |   271840
       15  | 60:24.41 |  3:15.42 |    271841    |   286507
       16  | 63:40.08 |  3:56.43 |    286508    |   304250
       17  | 67:36.51 |  4:54.34 |    304251    |   326334
       18  | 72:31.10 |  3:50.46 |    326335    |   343630
       19  | 76:21.56 |  2:45.60 |    343631    |   356065
Range status and errors
Selected range
     Filename G:\CD\ABBA - Gold. CD1 - ABBA Gold.wav
     Peak level 98.1 %
     Extraction speed 9.8 X
     Range quality 100.0 %
     Test CRC F506C75A
     Copy CRC F506C75A
     Copy OK
No errors occurred
AccurateRip summary
Track  1  accurately ripped (confidence 175)  [412C51AF]  (AR v2)
Track  2  accurately ripped (confidence 172)  [3AF8B11A]  (AR v2)
Track  3  accurately ripped (confidence 173)  [ACDE2F8A]  (AR v2)
Track  4  accurately ripped (confidence 170)  [CF823C3A]  (AR v2)
Track  5  accurately ripped (confidence 170)  [B2E2D99B]  (AR v2)
Track  6  accurately ripped (confidence 171)  [ED8F6F63]  (AR v2)
Track  7  accurately ripped (confidence 171)  [F849D30B]  (AR v2)
Track  8  accurately ripped (confidence 172)  [75CB6FB3]  (AR v2)
Track  9  accurately ripped (confidence 172)  [6E64379F]  (AR v2)
Track 10  accurately ripped (confidence 170)  [F7833F61]  (AR v2)
Track 11  accurately ripped (confidence 170)  [D0B8A610]  (AR v2)
Track 12  accurately ripped (confidence 170)  [7A1C3C0B]  (AR v2)
Track 13  accurately ripped (confidence 170)  [D5193193]  (AR v2)
Track 14  accurately ripped (confidence 172)  [353C800A]  (AR v2)
Track 15  accurately ripped (confidence 170)  [D2603131]  (AR v2)
Track 16  accurately ripped (confidence 169)  [60373A1E]  (AR v2)
Track 17  accurately ripped (confidence 166)  [9FBC380E]  (AR v2)
Track 18  accurately ripped (confidence 167)  [45BCF74E]  (AR v2)
Track 19  accurately ripped (confidence 165)  [32A18D0A]  (AR v2)
All tracks accurately ripped
End of status report
---- CUETools DB Plugin V2.1.3
[CTDB TOCID: 3B8kgj57RVPavvW9ayxU6og0kp0-] found, Submit result: 3B8kgj57RVPavvW9ayxU6og0kp0- has been confirmed
[e9b28027] (242/259) Accurately ripped
[9c25b174] (001/259) No match
[976a1b5e] (001/259) No match
[ec7d567c] (001/259) No match
[a235c32f] (001/259) No match
[2729c503] (001/259) No match
[34ea3136] (001/259) No match
[d076224e] (001/259) No match
[e8ae2da8] (001/259) No match
[626a6f54] (001/259) No match
[ac889f26] (001/259) No match
[b410bc29] (001/259) No match
[45904832] (001/259) No match
[5911ffe3] (001/259) No match
[09f9fdc0] (001/259) No match
[11fdbb48] (001/259) No match
[1ba7cef4] (001/259) No match
[82209e77] (001/259) No match
==== Log checksum A25351E638C4AAA7AD6294223D1E5F2B708EA25E88DCE081BD5767704D14A0D7 ====

Отчёт auCDtectTaskManager:

-----------------------
DON'T MODIFY THIS FILE
-----------------------
PERFORMER: auCDtect Task Manager, ver. 1.5.1RC4 build 1.5.1.5
Copyright (c) 2008-2010 y-soft. All rights reserved
http://y-soft.org
ANALYZER: auCDtect: CD records authenticity detector, version 0.8.2
Copyright (c) 2004 Oleg Berngardt. All rights reserved.
Copyright (c) 2004 Alexander Djourik. All rights reserved.
FILE: ABBA - Gold. CD1 - ABBA Gold.flac
  Size: 582657973 Hash: B56061FA1CC7B979066E5F74BE811309 Accuracy: -m0
  Conclusion: CDDA 100%
  Signature: B4DD0FEC0E9FDEB7580A4D18B6B807008C29234C

Содержимое индексной карты:

REM GENRE "Pop Rock, Euro Disco"
REM DATE 2014
REM DISCID 05128B13
REM COMMENT "ExactAudioCopy v1.0b3"
CATALOG 0602537740055
PERFORMER "ABBA"
TITLE "Gold (40th Anniversary Edition) CD1 - ABBA Gold"
FILE "ABBA - Gold. CD1 - ABBA Gold.flac" WAVE
  TRACK 01 AUDIO
    TITLE "Dancing Queen"
    PERFORMER "ABBA"
    ISRC SEAYD7601020
    INDEX 01 00:00:00
  TRACK 02 AUDIO
    TITLE "Knowing Me, Knowing You"
    PERFORMER "ABBA"
    ISRC SEAYD7601050
    INDEX 00 03:51:07
    INDEX 01 03:53:07
  TRACK 03 AUDIO
    TITLE "Take A Chance On Me"
    PERFORMER "ABBA"
    ISRC SEAYD7702020
    INDEX 00 07:54:68
    INDEX 01 07:56:68
  TRACK 04 AUDIO
    TITLE "Mamma Mia"
    PERFORMER "ABBA"
    ISRC SEAYD7501010
    INDEX 00 12:03:54
    INDEX 01 12:05:54
  TRACK 05 AUDIO
    TITLE "Lay All Your Love On Me"
    PERFORMER "ABBA"
    ISRC SEAYD8001090
    INDEX 00 15:36:51
    INDEX 01 15:38:51
  TRACK 06 AUDIO
    TITLE "Super Trouper"
    PERFORMER "ABBA"
    ISRC SEAYD8001010
    INDEX 00 20:11:14
    INDEX 01 20:13:14
  TRACK 07 AUDIO
    TITLE "I Have A Dream"
    PERFORMER "ABBA"
    ISRC SEAYD7901030
    INDEX 00 24:24:73
    INDEX 01 24:26:73
  TRACK 08 AUDIO
    TITLE "The Winner Takes It All"
    PERFORMER "ABBA"
    ISRC SEAYD8001020
    INDEX 00 29:10:38
    INDEX 01 29:12:38
  TRACK 09 AUDIO
    TITLE "Money, Money, Money"
    PERFORMER "ABBA"
    ISRC SEAYD7601060
    INDEX 00 34:07:59
    INDEX 01 34:09:59
  TRACK 10 AUDIO
    TITLE "S.O.S"
    PERFORMER "ABBA"
    ISRC SEAYD7501040
    INDEX 00 37:16:43
    INDEX 01 37:18:43
  TRACK 11 AUDIO
    TITLE "Chiquita"
    PERFORMER "ABBA"
    ISRC SEAYD7901080
    INDEX 00 40:39:70
    INDEX 01 40:41:70
  TRACK 12 AUDIO
    TITLE "Fernando"
    PERFORMER "ABBA"
    ISRC SEAYD7602070
    INDEX 00 46:07:63
    INDEX 01 46:09:63
  TRACK 13 AUDIO
    TITLE "Voulez Vous"
    PERFORMER "ABBA"
    ISRC SEAYD7901020
    INDEX 00 50:22:45
    INDEX 01 50:24:45
  TRACK 14 AUDIO
    TITLE "Gimme! Gimme! Gimme! (A Man After Midnight )"
    PERFORMER "ABBA"
    ISRC SEAYD7901120
    INDEX 00 55:31:29
    INDEX 01 55:33:29
  TRACK 15 AUDIO
    TITLE "Does Your Mother Know"
    PERFORMER "ABBA"
    ISRC SEAYD7901060
    INDEX 00 60:22:41
    INDEX 01 60:24:41
  TRACK 16 AUDIO
    TITLE "One Of Us"
    PERFORMER "ABBA"
    ISRC SEAYD8102060
    INDEX 00 63:38:08
    INDEX 01 63:40:08
  TRACK 17 AUDIO
    TITLE "The Name Of The Game"
    PERFORMER "ABBA"
    ISRC SEAYD7702040
    INDEX 00 67:34:51
    INDEX 01 67:36:51
  TRACK 18 AUDIO
    TITLE "Thank You For The Music"
    PERFORMER "ABBA"
    ISRC SEAYD7702080
    INDEX 00 72:29:10
    INDEX 01 72:31:10
  TRACK 19 AUDIO
    TITLE "Waterloo"
    PERFORMER "ABBA"
    ISRC SEAYD7415010
    INDEX 00 76:19:56
    INDEX 01 76:21:56

CD2 (More Abba Gold)

Трек лист:
01. Summer Night City
02. Angeleyes
03. The Day Before You Came
04. Eagle
05. I Do, I Do, I Do, I Do, I Do
06. So Long
07. Honey Honey
08. The Visitors
09. Our Last Summer
10. On & on & on
11. Ring Ring
12. I Wonder (Departure)
13. Lovelight
14. Head Over Heels
15. When I Kissed the Teacher
16. I Am the City
17. Cassandra
18. Under Attack
19. When All Is Said and Done
20. The Way Old Friends Do
Продолжительность - 01:18:56

Отчёт ЕАС:

Exact Audio Copy V1.0 beta 3 from 29. August 2011
EAC extraction logfile from 17. May 2014, 8:10
ABBA / Gold (40th Anniversary Edition) CD2 - More ABBA Gold
Used drive  : Optiarc BD RW BD-5300S   Adapter: 0  ID: 0
Read mode               : Secure
Utilize accurate stream : Yes
Defeat audio cache      : Yes
Make use of C2 pointers : No
Read offset correction                      : 6
Overread into Lead-In and Lead-Out          : No
Fill up missing offset samples with silence : Yes
Delete leading and trailing silent blocks   : No
Null samples used in CRC calculations       : Yes
Used interface                              : Installed external ASPI interface
Used output format              : User Defined Encoder
Selected bitrate                : 128 kBit/s
Quality                         : High
Add ID3 tag                     : Yes
Command line compressor         : C:\Program Files (x86)\Exact Audio Copy\Flac\flac.exe
Additional command line options : -V -8 %source%
TOC of the extracted CD
     Track |   Start  |  Length  | Start sector | End sector
    ---------------------------------------------------------
        1  |  0:00.00 |  3:36.40 |         0    |    16239
        2  |  3:36.40 |  4:22.68 |     16240    |    35957
        3  |  7:59.33 |  5:51.12 |     35958    |    62294
        4  | 13:50.45 |  4:24.49 |     62295    |    82143
        5  | 18:15.19 |  3:17.20 |     82144    |    96938
        6  | 21:32.39 |  3:10.60 |     96939    |   111248
        7  | 24:43.24 |  2:58.20 |    111249    |   124618
        8  | 27:41.44 |  5:46.65 |    124619    |   150633
        9  | 33:28.34 |  4:21.00 |    150634    |   170208
       10  | 37:49.34 |  3:44.40 |    170209    |   187048
       11  | 41:33.74 |  3:06.10 |    187049    |   201008
       12  | 44:40.09 |  4:33.37 |    201009    |   221520
       13  | 49:13.46 |  3:49.08 |    221521    |   238703
       14  | 53:02.54 |  3:50.72 |    238704    |   256025
       15  | 56:53.51 |  3:02.55 |    256026    |   269730
       16  | 59:56.31 |  4:02.67 |    269731    |   287947
       17  | 63:59.23 |  4:54.05 |    287948    |   310002
       18  | 68:53.28 |  3:49.58 |    310003    |   327235
       19  | 72:43.11 |  3:18.32 |    327236    |   342117
       20  | 76:01.43 |  2:54.10 |    342118    |   355177
Range status and errors
Selected range
     Filename G:\CD\ABBA - Gold. CD2 - More ABBA Gold.wav
     Peak level 96.8 %
     Extraction speed 3.9 X
     Range quality 100.0 %
     Test CRC C23B257C
     Copy CRC C23B257C
     Copy OK
No errors occurred
AccurateRip summary
Track  1  accurately ripped (confidence 91)  [A83A687A]  (AR v2)
Track  2  accurately ripped (confidence 91)  [C4F1C08E]  (AR v2)
Track  3  accurately ripped (confidence 92)  [8574607A]  (AR v2)
Track  4  accurately ripped (confidence 91)  [18F3FD92]  (AR v2)
Track  5  accurately ripped (confidence 91)  [26CD3CE7]  (AR v2)
Track  6  accurately ripped (confidence 91)  [2A25E4AC]  (AR v2)
Track  7  accurately ripped (confidence 92)  [7B62BFE8]  (AR v2)
Track  8  accurately ripped (confidence 90)  [B1FBFA1D]  (AR v2)
Track  9  accurately ripped (confidence 92)  [35CE863B]  (AR v2)
Track 10  accurately ripped (confidence 92)  [FDFF030C]  (AR v2)
Track 11  accurately ripped (confidence 92)  [E6727E65]  (AR v2)
Track 12  accurately ripped (confidence 92)  [2A966150]  (AR v2)
Track 13  accurately ripped (confidence 92)  [57B1EB54]  (AR v2)
Track 14  accurately ripped (confidence 92)  [7A0A8946]  (AR v2)
Track 15  accurately ripped (confidence 92)  [AACF1C89]  (AR v2)
Track 16  accurately ripped (confidence 88)  [81A82316]  (AR v2)
Track 17  accurately ripped (confidence 86)  [108CC582]  (AR v2)
Track 18  accurately ripped (confidence 85)  [D3F0276A]  (AR v2)
Track 19  accurately ripped (confidence 83)  [4F787BA6]  (AR v2)
Track 20  accurately ripped (confidence 81)  [371A0D77]  (AR v2)
All tracks accurately ripped
End of status report
---- CUETools DB Plugin V2.1.3
[CTDB TOCID: wgLmamD4dvfnUwPDsqK0kJ2IjYc-] found, Submit result: wgLmamD4dvfnUwPDsqK0kJ2IjYc- has been confirmed
[9c0682ff] (73/77) Accurately ripped
[09d8cbdc] (01/77) No match
[5280fcde] (01/77) No match
[b8fa5dea] (01/77) No match
[0907b67c] (01/77) No match
==== Log checksum E4BA150DD3DC727677B5C4BC4E75125C6E906E43503A5EF2F41ACD867877C247 ====

Отчёт auCDtectTaskManager:

-----------------------
DON'T MODIFY THIS FILE
-----------------------
PERFORMER: auCDtect Task Manager, ver. 1.5.1RC4 build 1.5.1.5
Copyright (c) 2008-2010 y-soft. All rights reserved
http://y-soft.org
ANALYZER: auCDtect: CD records authenticity detector, version 0.8.2
Copyright (c) 2004 Oleg Berngardt. All rights reserved.
Copyright (c) 2004 Alexander Djourik. All rights reserved.
FILE: ABBA - Gold. CD2 - More ABBA Gold.flac
  Size: 581703001 Hash: ECA0AC7BA7E14EF87AEFD1037B12DD57 Accuracy: -m0
  Conclusion: CDDA 100%
  Signature: AAF6DE63955D998D7D887DEF6D146A8AE6656DDC

Содержимое индексной карты:

REM GENRE "Pop Rock, Euro Disco"
REM DATE 2014
REM DISCID 2C127F14
REM COMMENT "ExactAudioCopy v1.0b3"
CATALOG 0602537740093
PERFORMER "ABBA"
TITLE "Gold (40th Anniversary Edition) CD2 - More ABBA Gold"
FILE "ABBA - Gold. CD2 - More ABBA Gold.flac" WAVE
  TRACK 01 AUDIO
    TITLE "Summer Night City"
    PERFORMER "ABBA"
    ISRC SEAYD7806010
    INDEX 01 00:00:00
  TRACK 02 AUDIO
    TITLE "Angeleyes"
    PERFORMER "ABBA"
    ISRC SEAYD7901040
    INDEX 00 03:33:10
    INDEX 01 03:36:40
  TRACK 03 AUDIO
    TITLE "The Day Before You Came"
    PERFORMER "ABBA"
    ISRC SEAYD8209010
    INDEX 00 07:57:03
    INDEX 01 07:59:33
  TRACK 04 AUDIO
    TITLE "Eagle"
    PERFORMER "ABBA"
    ISRC SEAYD7702010
    INDEX 00 13:49:11
    INDEX 01 13:50:45
  TRACK 05 AUDIO
    TITLE "I Do, I Do, I Do, I Do, I Do"
    PERFORMER "ABBA"
    ISRC SEAYD7501070
    INDEX 00 18:14:01
    INDEX 01 18:15:19
  TRACK 06 AUDIO
    TITLE "So Long"
    PERFORMER "ABBA"
    ISRC SEAYD7501110
    INDEX 00 21:30:59
    INDEX 01 21:32:39
  TRACK 07 AUDIO
    TITLE "Honey Honey"
    PERFORMER "ABBA"
    ISRC SEAYD7423170
    INDEX 00 24:38:08
    INDEX 01 24:43:24
  TRACK 08 AUDIO
    TITLE "The Visitors"
    PERFORMER "ABBA"
    ISRC SEAYD8102010
    INDEX 00 27:38:35
    INDEX 01 27:41:44
  TRACK 09 AUDIO
    TITLE "Our Last Summer"
    PERFORMER "ABBA"
    ISRC SEAYD8001070
    INDEX 00 33:26:46
    INDEX 01 33:28:34
  TRACK 10 AUDIO
    TITLE "On & on & on"
    PERFORMER "ABBA"
    ISRC SEAYD8001030
    INDEX 00 37:47:50
    INDEX 01 37:49:34
  TRACK 11 AUDIO
    TITLE "Ring Ring"
    PERFORMER "ABBA"
    ISRC SEAYD7301010
    INDEX 00 41:30:15
    INDEX 01 41:33:74
  TRACK 12 AUDIO
    TITLE "I Wonder (Departure)"
    PERFORMER "ABBA"
    ISRC SEAYD7702090
    INDEX 00 44:38:29
    INDEX 01 44:40:09
  TRACK 13 AUDIO
    TITLE "Lovelight"
    PERFORMER "ABBA"
    ISRC SEAYD7901110
    INDEX 00 49:11:21
    INDEX 01 49:13:46
  TRACK 14 AUDIO
    TITLE "Head Over Heels"
    PERFORMER "ABBA"
    ISRC SEAYD8102020
    INDEX 00 53:00:11
    INDEX 01 53:02:54
  TRACK 15 AUDIO
    TITLE "When I Kissed the Teacher"
    PERFORMER "ABBA"
    ISRC SEAYD7601010
    INDEX 00 56:49:34
    INDEX 01 56:53:51
  TRACK 16 AUDIO
    TITLE "I Am the City"
    PERFORMER "ABBA"
    ISRC SEAYD8209040
    INDEX 00 59:54:66
    INDEX 01 59:56:31
  TRACK 17 AUDIO
    TITLE "Cassandra"
    PERFORMER "ABBA"
    ISRC SEAYD8208010
    INDEX 00 63:57:46
    INDEX 01 63:59:23
  TRACK 18 AUDIO
    TITLE "Under Attack"
    PERFORMER "ABBA"
    ISRC SEAYD8209020
    INDEX 00 68:51:25
    INDEX 01 68:53:28
  TRACK 19 AUDIO
    TITLE "When All Is Said and Done"
    PERFORMER "ABBA"
    ISRC SEAYD8102030
    INDEX 00 72:39:58
    INDEX 01 72:43:11
  TRACK 20 AUDIO
    TITLE "The Way Old Friends Do"
    PERFORMER "ABBA"
    ISRC SEAYD8001100
    INDEX 00 75:59:49
    INDEX 01 76:01:43

CD3 (B-Sides)

Трек лист:
01. She's My Kind of Girl
02. I Am Just a Girl
03. Gonna Sing You My Love Song
04. King Kong Song
05. I've Been Waiting For You
06. Rock Me
07. Man In the Middle
08. Intermezzo No.1
09. That's Me
10. Crazy World
11. Happy Hawaii
12. I'm a Marionette
13. Medley Pick a Bale of Cotton
14. Kisses of Fire
15. The King Has Lost His Crown
16. Elaine
17. The Piper
18. Andante, Andante
19. Should I Laugh or Cry
20. Soldiers
Продолжительность - 01:13:51

Отчёт ЕАС:

Exact Audio Copy V1.0 beta 3 from 29. August 2011
EAC extraction logfile from 17. May 2014, 8:40
ABBA / Gold (40th Anniversary Edition) CD3 - B-Sides
Used drive  : ATAPI   iHAS124   B   Adapter: 1  ID: 0
Read mode               : Secure
Utilize accurate stream : Yes
Defeat audio cache      : Yes
Make use of C2 pointers : No
Read offset correction                      : 6
Overread into Lead-In and Lead-Out          : No
Fill up missing offset samples with silence : Yes
Delete leading and trailing silent blocks   : No
Null samples used in CRC calculations       : Yes
Used interface                              : Installed external ASPI interface
Used output format              : User Defined Encoder
Selected bitrate                : 128 kBit/s
Quality                         : High
Add ID3 tag                     : Yes
Command line compressor         : C:\Program Files (x86)\Exact Audio Copy\Flac\flac.exe
Additional command line options : -V -8 %source%
TOC of the extracted CD
     Track |   Start  |  Length  | Start sector | End sector
    ---------------------------------------------------------
        1  |  0:00.00 |  2:45.48 |         0    |    12422
        2  |  2:45.48 |  3:02.36 |     12423    |    26108
        3  |  5:48.09 |  3:37.42 |     26109    |    42425
        4  |  9:25.51 |  3:12.33 |     42426    |    56858
        5  | 12:38.09 |  3:40.00 |     56859    |    73358
        6  | 16:18.09 |  3:04.40 |     73359    |    87198
        7  | 19:22.49 |  3:01.09 |     87199    |   100782
        8  | 22:23.58 |  3:46.36 |    100783    |   117768
        9  | 26:10.19 |  3:15.37 |    117769    |   132430
       10  | 29:25.56 |  3:44.70 |    132431    |   149300
       11  | 33:10.51 |  4:24.69 |    149301    |   169169
       12  | 37:35.45 |  4:04.04 |    169170    |   187473
       13  | 41:39.49 |  4:19.34 |    187474    |   206932
       14  | 45:59.08 |  3:16.39 |    206933    |   221671
       15  | 49:15.47 |  3:32.73 |    221672    |   237644
       16  | 52:48.45 |  3:44.67 |    237645    |   254511
       17  | 56:33.37 |  3:26.39 |    254512    |   270000
       18  | 60:00.01 |  4:40.32 |    270001    |   291032
       19  | 64:40.33 |  4:30.09 |    291033    |   311291
       20  | 69:10.42 |  4:40.15 |    311292    |   332306
Range status and errors
Selected range
     Filename G:\CD\ABBA - Gold. CD3 - B-Sides.wav
     Peak level 97.7 %
     Extraction speed 9.6 X
     Range quality 100.0 %
     Test CRC DE647D56
     Copy CRC DE647D56
     Copy OK
No errors occurred
AccurateRip summary
Track  1  accurately ripped (confidence 3)  [DA9C2753]  (AR v2)
Track  2  accurately ripped (confidence 3)  [66455747]  (AR v2)
Track  3  accurately ripped (confidence 3)  [46DECDAC]  (AR v2)
Track  4  accurately ripped (confidence 3)  [B6455328]  (AR v2)
Track  5  accurately ripped (confidence 3)  [A03D560B]  (AR v2)
Track  6  accurately ripped (confidence 3)  [58B00F08]  (AR v2)
Track  7  accurately ripped (confidence 3)  [F2248C17]  (AR v2)
Track  8  accurately ripped (confidence 3)  [ED1F43CE]  (AR v2)
Track  9  accurately ripped (confidence 3)  [35A91D64]  (AR v2)
Track 10  accurately ripped (confidence 3)  [701F5691]  (AR v2)
Track 11  accurately ripped (confidence 3)  [36C9E88C]  (AR v2)
Track 12  accurately ripped (confidence 3)  [4E6ED73A]  (AR v2)
Track 13  accurately ripped (confidence 3)  [292CE2A4]  (AR v2)
Track 14  accurately ripped (confidence 3)  [AB3AD88B]  (AR v2)
Track 15  accurately ripped (confidence 3)  [5D9D9940]  (AR v2)
Track 16  accurately ripped (confidence 3)  [59486634]  (AR v2)
Track 17  accurately ripped (confidence 3)  [DEB7F6B1]  (AR v2)
Track 18  accurately ripped (confidence 3)  [97973562]  (AR v2)
Track 19  accurately ripped (confidence 3)  [84D53FF2]  (AR v2)
Track 20  accurately ripped (confidence 3)  [925654A7]  (AR v2)
All tracks accurately ripped
End of status report
---- CUETools DB Plugin V2.1.3
[CTDB TOCID: myJZBoegw6TZ8fDJUnID.sk_M4A-] found, Submit result: myJZBoegw6TZ8fDJUnID.sk_M4A- has been confirmed
[83704a3e] (8/8) Accurately ripped
==== Log checksum 7D7D2914EB85C574E628E0388C38773E9C1886ACC180DAD9BCFBDBC5C9369937 ====

Отчёт auCDtectTaskManager:

-----------------------
DON'T MODIFY THIS FILE
-----------------------
PERFORMER: auCDtect Task Manager, ver. 1.5.1RC4 build 1.5.1.5
Copyright (c) 2008-2010 y-soft. All rights reserved
http://y-soft.org
ANALYZER: auCDtect: CD records authenticity detector, version 0.8.2
Copyright (c) 2004 Oleg Berngardt. All rights reserved.
Copyright (c) 2004 Alexander Djourik. All rights reserved.
FILE: ABBA - Gold. CD3 - B-Sides.flac
  Size: 539262428 Hash: 66BB20C4194BC3C99512CA9C90F0A59F Accuracy: -m0
  Conclusion: CDDA 100%
  Signature: 14B5FE54C7CD27AD4526DB90E44AD64B0D9414D8

Содержимое индексной карты:

REM GENRE "Pop Rock, Euro Disco"
REM DATE 2014
REM DISCID 25114E14
REM COMMENT "ExactAudioCopy v1.0b3"
CATALOG 0602537740116
PERFORMER "ABBA"
TITLE "Gold (40th Anniversary Edition) CD3 - B-Sides"
FILE "ABBA - Gold. CD3 - B-Sides.flac" WAVE
  TRACK 01 AUDIO
    TITLE "She's My Kind of Girl"
    PERFORMER "ABBA"
    ISRC SEAYD7301100
    INDEX 01 00:00:00
  TRACK 02 AUDIO
    TITLE "I Am Just a Girl"
    PERFORMER "ABBA"
    ISRC SEAYD7301110
    INDEX 01 02:45:48
  TRACK 03 AUDIO
    TITLE "Gonna Sing You My Love Song"
    PERFORMER "ABBA"
    ISRC SEAYD7401100
    INDEX 01 05:48:09
  TRACK 04 AUDIO
    TITLE "King Kong Song"
    PERFORMER "ABBA"
    ISRC SEAYD7401030
    INDEX 01 09:25:51
  TRACK 05 AUDIO
    TITLE "I've Been Waiting For You"
    PERFORMER "ABBA"
    ISRC SEAYD7501100
    INDEX 01 12:38:09
  TRACK 06 AUDIO
    TITLE "Rock Me"
    PERFORMER "ABBA"
    ISRC SEAYD7501080
    INDEX 01 16:18:09
  TRACK 07 AUDIO
    TITLE "Man In the Middle"
    PERFORMER "ABBA"
    ISRC SEAYD7501050
    INDEX 01 19:22:49
  TRACK 08 AUDIO
    TITLE "Intermezzo No.1"
    PERFORMER "ABBA"
    ISRC SEAYD7501090
    INDEX 01 22:23:58
  TRACK 09 AUDIO
    TITLE "That's Me"
    PERFORMER "ABBA"
    ISRC SEAYD7601070
    INDEX 01 26:10:19
  TRACK 10 AUDIO
    TITLE "Crazy World"
    PERFORMER "ABBA"
    ISRC SEAYD7601120
    INDEX 01 29:25:56
  TRACK 11 AUDIO
    TITLE "Happy Hawaii"
    PERFORMER "ABBA"
    ISRC SEAYD7704010
    INDEX 01 33:10:51
  TRACK 12 AUDIO
    TITLE "I'm a Marionette"
    PERFORMER "ABBA"
    ISRC SEAYD7702100
    INDEX 00 37:34:47
    INDEX 01 37:35:45
  TRACK 13 AUDIO
    TITLE "Medley  Pick a Bale of Cotton"
    PERFORMER "ABBA"
    ISRC SEAYD7806020
    INDEX 01 41:39:49
  TRACK 14 AUDIO
    TITLE "Kisses of Fire"
    PERFORMER "ABBA"
    ISRC SEAYD7901100
    INDEX 01 45:59:08
  TRACK 15 AUDIO
    TITLE "The King Has Lost His Crown"
    PERFORMER "ABBA"
    ISRC SEAYD7901050
    INDEX 01 49:15:47
  TRACK 16 AUDIO
    TITLE "Elaine"
    PERFORMER "ABBA"
    ISRC SEAYD8001110
    INDEX 01 52:48:45
  TRACK 17 AUDIO
    TITLE "The Piper"
    PERFORMER "ABBA"
    ISRC SEAYD8001080
    INDEX 01 56:33:37
  TRACK 18 AUDIO
    TITLE "Andante, Andante"
    PERFORMER "ABBA"
    ISRC SEAYD8001040
    INDEX 01 60:00:01
  TRACK 19 AUDIO
    TITLE "Should I Laugh or Cry"
    PERFORMER "ABBA"
    ISRC SEAYD8102100
    INDEX 01 64:40:33
  TRACK 20 AUDIO
    TITLE "Soldiers"
    PERFORMER "ABBA"
    ISRC SEAYD8102040
    INDEX 01 69:10:42
--
[Профиль] [ЛС]

Создавать темы 13-Авг-2015 10:56 (спустя 1 год)

Топик был перенесен из форума Зарубежная в форум World Pop
sergej644
 
Кто просматривает тему:

Форум Тема Автор Размер
World Pop (Pop) ABBA - 40/40 The Best Selection (Japan Limited Edition)(2CD) - 2014, MP3, tracks, 320 kbps sergej644 365 MB
Показать сообщения:    

Текущее время: Сегодня 00:49

Часовой пояс: GMT



Вы не можете начинать темы
Вы не можете отвечать на сообщения
Вы не можете редактировать свои сообщения
Вы не можете удалять свои сообщения
Вы не можете голосовать в опросах
Вы не можете прикреплять файлы к сообщениям
Вы не можете скачивать файлы