99 франков / 99 francs (Ян Кунен / Jan Kounen) [2007, Франция, драма, комедия, BDRip] Dub (Мосфильм-Мастер)

 
Автор Сообщение

TorrentFilm ®

Пол:

Стаж: 2 года

Сообщений: 7741



Награды: Нет

Торрент-статистика

Создавать темы 16-Янв-2015 00:00

[Цитировать]

99 франков / 99 francsГод выпуска: 2007
Страна: Франция | |
Жанр: драма, комедия
Продолжительность: 01:44:29
Перевод: Профессиональный (полное дублирование) - «Мосфильм-Мастер»
Субтитры: нет
Режиссер: Ян Кунен / Jan Kounen
Сценарий: Николас Шарле / Nicolas Charlet, Бруно Лавэн / Bruno Lavaine, Ян Кунен / Jan Kounen, Фредерик Бегбедер / Frédéric Beigbeder
Продюсер: Ален Голдман / Alain Goldman, Реми Бура / Rémi Burah, Марк Ваде / Marc Vadé
Оператор: Давид Унгаро / David Ungaro
Композитор: Жан-Жак Эрц / Jean-Jacques Hertz, Франсуа Рой / François Roy
В ролях: Жан Дюжарден (Octave Parango), Жослин Киврен (Charles «Charlie» Dagout), Патрик Милле (Jean-François «Jeff» Marolles), Ваина Джоканте (Sophie), Элиза Товати (Tamara), Николя Марье (Alfred Duler), Доминик Беттенфельд (Jean-Christian Gagnant), Антуан Баслер (Marc Maronnier), Фоско Перинти (Giovanni Di Toro), Сендрин Орсье (Fabienne), Дэн Херцберг (Steven), Арсен Моска (Le dealer)
Дублёры: Василий Дахненко (Octave Parango), Илья Бледный (Charles «Charlie» Dagout), Александр Комлев (Jean-François «Jeff» Marolles), Татьяна Шитова (Sophie), Любовь Германова (Tamara), Александр Рахленко (Alfred Duler), Валерий Сторожик (Jean-Christian Gagnant), Михаил Тихонов (Marc Maronnier), Андрей Бархударов (Giovanni Di Toro), Людмила Шувалова (Fabienne)-Бюджет: € 12 500 000
Сборы в России: $1 136 036
Сборы в мире: $13 189 281
Мировая премьера: 26 сентября 2007
Релиз на DVD: 13 марта 2008, «CP-Digital»-«99 франков» — экранизация одноимённого романа Фредерика Бегбедера.

Описание:
Октаву нет равных во вселенной: ведь он занимается рекламой! Это он решает, чего вам захочется завтра. Для него «человек - это такой же продукт, как и все остальные». Октав трудится в крупнейшем рекламном агентстве. У него полно денег, женщин и кокаина, но, тем не менее, его терзают сомнения. Две вещи в корне меняют жизнь Октава: роман с Софи, самой красивой сотрудницей агентства, и совещание в гигантском молочном концерне «Мадон» по поводу рекламного ролика. Октав срывается с катушек и решает взбунтоваться против системы, которая его породила, саботируя свою же рекламную кампанию.- Рейтинг
kinopoisk.ru: 7.404 (57 319)
imdb.com: 7.30 (12 863)

Зрителям, достигшим 16 лет-Качество: BDRip (Cпасибо Xant1k)
Формат: AVI ///СОВМЕСТИМО С БЫТОВЫМИ ПЛЕЕРАМИ///
Размер : 1/3 DVD-R
Видео: 720x304 (2.37:1), 24 fps, XviD build 66 ~1539 kbps avg, 0.29 bit/pixel

//SAMPLE//

Аудио: 48 kHz, AC3 Dolby Digital, 3/2 (L,C,R,l,r) + LFE ch, ~448 kbps - RUS - Dub [Мосфильм-Мастер]

MIКод:General
Complete name : H:\99.Frankov.2007.XviD.BDRip.-Allfilms.avi
Format : AVI
Format/Info : Audio Video Interleave
File size : 1.46 GiB
Duration : 1h 44mn
Overall bit rate : 1 997 Kbps
Movie name : 99 франков / 99 francs [2007] BDRip -All Films
Director : Юpист
Genre : драма, комедия
Writing application : VirtualDubMod 1.5.10.3 | www.virtualdub-fr.org || (build 2550/release)
Writing library : VirtualDubMod build 2550/release
Copyright : RG All Films [torrentfilm.net]
Comment : «99 франков» — экранизация одноимённого романа Фредерика Бегбедера.
Video
ID : 0
Format : MPEG-4 Visual
Format profile : Advanced Simple@L5
Format settings, BVOP : 1
Format settings, QPel : No
Format settings, GMC : No warppoints
Format settings, Matrix : Custom
Codec ID : XVID
Codec ID/Hint : XviD
Duration : 1h 44mn
Bit rate : 1 539 Kbps
Width : 720 pixels
Height : 304 pixels
Display aspect ratio : 2.35:1
Frame rate : 24.000 fps
Color space : YUV
Chroma subsampling : 4:2:0
Bit depth : 8 bits
Scan type : Progressive
Compression mode : Lossy
Bits/(Pixel*Frame) : 0.293
Stream size : 1.12 GiB (77%)
Writing library : XviD 66
Audio
ID : 1
Format : AC-3
Format/Info : Audio Coding 3
Mode extension : CM (complete main)
Format settings, Endianness : Big
Codec ID : 2000
Duration : 1h 44mn
Bit rate mode : Constant
Bit rate : 448 Kbps
Channel(s) : 6 channels
Channel positions : Front: L C R, Side: L R, LFE
Sampling rate : 48.0 KHz
Bit depth : 16 bits
Compression mode : Lossy
Stream size : 335 MiB (22%)
Alignment : Split accross interleaves
Interleave, duration : 42 ms (1.00 video frame)
Interleave, preload duratio : 500 ms
Title : RUS - Dub [Мосфильм-Мастер]

-

Скриншоты


-

-
Знаете ли Вы, что...

  • Фильм снят по мотивам романа Фредерика Бегбедера «99 франков» (99 francs, 2000).
  • Сам Фредерик Бегбедер снялся в фильме в роли стюардессы и тусовщика на дискотеке. Также он появился в начале фильма как отражение Октава в зеркале.
-
[Профиль] [ЛС]

Создавать темы 06-Авг-2015 22:48 (спустя 6 месяцев 21 день)

Топик был перенесен из форума Фильмы до 2014 года в форум Фильмы до 2012 года
sergej644
 
Кто просматривает тему:

Показать сообщения:    

Текущее время: Сегодня 12:30

Часовой пояс: GMT



Вы не можете начинать темы
Вы не можете отвечать на сообщения
Вы не можете редактировать свои сообщения
Вы не можете удалять свои сообщения
Вы не можете голосовать в опросах
Вы не можете прикреплять файлы к сообщениям
Вы не можете скачивать файлы