90 минут на небесах / 90 Minutes in Heaven (2015) BDRip 720p | iTunes

 
Author Message

BOSS ®

Gender:

Longevity: 5 years 5 months

Posts: 14335

Location: ODESSA



: 22 ()

Mega Seeder 5 (1) Top Releaser 3 (1) Top Seeder 3 (1)
Торрент-статистика

Post 19-Mar-2016 19:12

[Quote]

Производство: США / Emmett/Furla Films, Giving Films
Жанр: драма
Режиссер: Майкл Полиш
Продюсер: Рэндолл Эмметт, Джордж Фурла, Рик Джексон
Актеры: Кейт Босворт, Хейден Кристенсен, Хадсон Мик, Бобби Батсон, Элизабет Хантер, Дэвид Клайд Карр, Катрин Карлен, Дуайт Йоакам, Майкл В. Смит, Джианна Саймон
Описание:
Жизнь пастора Дона Пайпера, любящего супруга и отца, — образец домашнего уюта и счастья. Непрошеные перемены наступают, когда Дон попадает в автомобильную аварию. Бессильные спасатели лишь констатируют факт смерти и накрывают тело брезентом. Однако спустя полтора часа бригада реанимации возвращает Дона к жизни.
Все это время душа Дона обретала покой, любовь и радость, каких никогда не знала прежде. Благодаря клинической смерти Дон приобретает мистический опыт, который заставляет его по-новому взглянуть на собственную жизнь. Но когда он возвращается в этот мир, дают о себе знать и печальные последствия аварии: Дон прикован к постели, и медицина не способна поставить его на ноги. Но после пережитого чуда Дон не намерен сдаваться. Заручившись поддержкой своей жены, он намерен преодолеть самые тяжелые испытания.

Рейтинг MPAA: PG-13 (детям до 13 лет просмотр нежелателен)
Дата мировой премьеры: 11 сентября 2015
Релиз от: bluebird
Продолжительность: 02:02:00
Качество: BDRip 720p
Перевод: Профессиональный (многоголосый закадровый) (iTunes)
Вид субтитров: Вшитые, отключаемые
Язык субтитров: Английский
Видео: AVC/H.264, 1280x536, (2,40:1), 5 620 Kbps, 23.976 fps
Аудио: AC3, 6 ch, 384 kbps - Русский
Аудио: DTS, 6 ch, 1509 kbps - Английский

MediaInfo:

General
Unique ID : 252791813577209336286945993184126664116 (0xBE2DEEAE4172CC03ACDFD00DC0877DB4)
Complete name : :\90_MNTS_N_HVN_2015_BDRIP_720P -BLUEBIRD.mkv
Format : Matroska
Format version : Version 4 / Version 2
File size : 6.53 GiB
Duration : 2h 2mn
Overall bit rate : 7 666 Kbps
Movie name : 90_MNTS_N_HVN_2015_BDRIP_720P -BLUEBIRD
Encoded date : UTC 2016-03-09 22:41:48
Writing application : mkvmerge v7.1.0 ('Good Love') 64bit built on Jul 27 2014 13:06:55
Writing library : libebml v1.3.0 + libmatroska v1.4.1
DURATION : 01:56:57.051000000
NUMBER_OF_FRAMES : 1595
NUMBER_OF_BYTES : 51015
_STATISTICS_WRITING_APP : mkvmerge v7.1.0 ('Good Love') 64bit built on Jul 27 2014 13:06:55
_STATISTICS_WRITING_DATE_UTC : 2016-03-09 22:41:48
_STATISTICS_TAGS : BPS DURATION NUMBER_OF_FRAMES NUMBER_OF_BYTES
Video
ID : 1
Format : AVC
Format/Info : Advanced Video Codec
Format profile : High@L4.1
Format settings, CABAC : Yes
Format settings, ReFrames : 12 frames
Codec ID : V_MPEG4/ISO/AVC
Duration : 2h 2mn
Bit rate : 5 620 Kbps
Width : 1 280 pixels
Height : 536 pixels
Display aspect ratio : 2.40:1
Frame rate mode : Constant
Frame rate : 23.976 fps
Color space : YUV
Chroma subsampling : 4:2:0
Bit depth : 8 bits
Scan type : Progressive
Bits/(Pixel*Frame) : 0.342
Stream size : 4.79 GiB (73%)
Title : 90_MNTS_N_HVN_2015_BDRIP_720P -BLUEBIRD
Writing library : x264 core 142 r2431+42 c69a006 tMod [8-bit@all X86_64]
Encoding settings : cabac=1 / ref=12 / deblock=1:-3:-3 / analyse=0x3:0x133 / me=umh / subme=11 / psy=1 / fade_compensate=0.00 / psy_rd=1.05:1.00 / mixed_ref=1 / me_range=32 / chroma_me=1 / trellis=2 / 8x8dct=1 / cqm=0 / deadzone=21,11 / fast_pskip=0 / chroma_qp_offset=-4 / threads=12 / lookahead_threads=2 / sliced_threads=0 / nr=0 / decimate=0 / interlaced=0 / bluray_compat=0 / constrained_intra=0 / fgo=0 / bframes=8 / b_pyramid=2 / b_adapt=2 / b_bias=0 / direct=3 / weightb=1 / open_gop=0 / weightp=2 / keyint=240 / keyint_min=23 / scenecut=40 / intra_refresh=0 / rc_lookahead=60 / rc=crf / mbtree=0 / crf=17.0000 / qcomp=0.60 / qpmin=0:0:0 / qpmax=69:69:69 / qpstep=4 / vbv_maxrate=40000 / vbv_bufsize=30000 / crf_max=0.0 / nal_hrd=none / filler=0 / ip_ratio=1.40 / pb_ratio=1.30 / aq=1:1.00 / aq-sensitivity=10.00 / aq-factor=1.00:1.00:1.00 / aq2=0 / aq3=0
Language : English
Default : Yes
Forced : No
Audio #1
ID : 2
Format : AC-3
Format/Info : Audio Coding 3
Mode extension : CM (complete main)
Format settings, Endianness : Big
Codec ID : A_AC3
Duration : 2h 2mn
Bit rate mode : Constant
Bit rate : 384 Kbps
Channel(s) : 6 channels
Channel positions : Front: L C R, Side: L R, LFE
Sampling rate : 48.0 KHz
Compression mode : Lossy
Stream size : 335 MiB (5%)
Title : iTunes
Language : Russian
Default : Yes
Forced : No
Audio #2
ID : 3
Format : DTS
Format/Info : Digital Theater Systems
Mode : 16
Format settings, Endianness : Big
Codec ID : A_DTS
Duration : 2h 2mn
Bit rate mode : Constant
Bit rate : 1 509 Kbps
Channel(s) : 6 channels
Channel positions : Front: L C R, Side: L R, LFE
Sampling rate : 48.0 KHz
Bit depth : 24 bits
Compression mode : Lossy
Stream size : 1.29 GiB (20%)
Title : English DTS Core 5.1 @1509 Kbps
Language : English
Default : No
Forced : No
Text
ID : 4
Format : UTF-8
Codec ID : S_TEXT/UTF8
Codec ID/Info : UTF-8 Plain Text
Title : SDH
Language : English
Default : Yes
Forced : No
Menu
00:00:00.000 : en:Chapter 01
00:06:18.418 : en:Chapter 02
00:10:40.931 : en:Chapter 03
00:15:10.743 : en:Chapter 04
00:20:13.545 : en:Chapter 05
00:26:19.994 : en:Chapter 06
00:31:36.853 : en:Chapter 07
00:40:10.657 : en:Chapter 08
00:45:36.399 : en:Chapter 09
00:54:32.893 : en:Chapter 10
01:04:07.092 : en:Chapter 11
01:10:33.311 : en:Chapter 12
01:15:44.162 : en:Chapter 13
01:20:36.997 : en:Chapter 14
01:27:33.372 : en:Chapter 15
01:35:31.600 : en:Chapter 16
01:39:22.331 : en:Chapter 17
01:48:05.145 : en:Chapter 18
01:52:19.690 : en:Chapter 19
01:58:23.220 : en:Chapter 20
02:02:00.061 : en:Chapter 21
Скриншоты:

Время раздачи: 24/7
[Profile] [PM]
Кто просматривает тему:

Display posts from previous:    

The time now is: Today 14:28

All times are GMT



You cannot post new topics in this forum
You cannot reply to topics in this forum
You cannot edit your posts in this forum
You cannot delete your posts in this forum
You cannot vote in polls in this forum
You cannot attach files in this forum
You cannot download files in this forum