9 апреля / 9. april (2015) BDRip 720p | Есарев

 
Автор Сообщение

достали все ®

Пол:

Стаж: 1 год 8 месяцев

Сообщений: 6600



Награды: 12 (Подробнее)

Mega Releaser 1 (Количество: 1) Mega Seeder 1 (Количество: 1) Mega Seeder 2 (Количество: 1)
Торрент-статистика

Создавать темы 25-Янв-2016 07:50

[Цитировать]

Название: 9 апреля
Оригинальное название: 9. april
Год выпуска: 2015
Жанр: Драма, военный
Выпущено: Дания, Det Danske Filminstitut, Nordisk Film A/S, TV2 Danmark
Режиссер: Рони Эзра
В ролях: Ларс Миккельсен, Йохан Филип Асбек, Хоаким Фьелструп, Густав Дюэкьер Гис, Себастьян Булл Сарнинг, Пелле Эмиль, Лукас Шварц Торстейнссон, Мартин Грайс
О фильме: Ранним утром 9 апреля 1940 года датская армия была поднята по тревоге. Немцы перешли границу. Дания вступает в войну против сильнейшей армии в Европе. Сюжет фильма рассказывает о втором лейтенанте Сэнде и его велосипедной компании — в этот роковой час именно они будут первыми датскими солдатами встретившими врага в бою.

Качество: BDRip 720p
Видео: MPEG-4 AVC, 11.8 Мбит/с, 1280x692
Аудио: Русский, датский (DTS, 6 ch, 1510 Кбит/с)
Продолжительность: 01:32:32
Перевод: Авторский одноголосый [Д.Есарев]
Субтитры: Английские, датские, финские, норвежские, шведские

Скриншоты

MediaInfo

File: D:Видео 29-Апреля(2015).mkv
General
Unique ID : 223435145441700151127903232888530017889 (0xA8180B3176145C3C884655A94D441E61)
Complete name : D:Видео 29-Апреля(2015).mkv
Format : Matroska
Format version : Version 4 / Version 2
File size : 9.77 GiB
Duration : 1h 32mn
Overall bit rate : 15.1 Mbps
Movie name : 9 april (2015) - Release for HDCLUB
Encoded date : UTC 2016-01-03 14:32:21
Writing application : mkvmerge v8.5.1 ('Where you lead I will follow') 64bit
Writing library : libebml v1.3.3 + libmatroska v1.4.4
DURATION : 01:32:32.502000000
NUMBER_OF_FRAMES : 520547
NUMBER_OF_BYTES : 1047340564
_STATISTICS_WRITING_APP : mkvmerge v8.5.1 ('Where you lead I will follow') 64bit
_STATISTICS_WRITING_DATE_UTC : 2016-01-03 14:32:21
_STATISTICS_TAGS : BPS DURATION NUMBER_OF_FRAMES NUMBER_OF_BYTES
Video
ID : 1
Format : AVC
Format/Info : Advanced Video Codec
Format profile : High@L4.1
Format settings, CABAC : Yes
Format settings, ReFrames : 9 frames
Codec ID : V_MPEG4/ISO/AVC
Duration : 1h 32mn
Bit rate : 11.8 Mbps
Width : 1 280 pixels
Height : 692 pixels
Display aspect ratio : 1.85:1
Frame rate mode : Constant
Frame rate : 24.000 fps
Color space : YUV
Chroma subsampling : 4:2:0
Bit depth : 8 bits
Scan type : Progressive
Bits/(Pixel*Frame) : 0.555
Stream size : 7.63 GiB (78%)
Title : 9 april (2015) - Release for HDCLUB
Writing library : x264 core 146 r2538 121396c
Encoding settings : cabac=1 / ref=9 / deblock=1:-3:-3 / analyse=0x3:0x133 / me=umh / subme=10 / psy=1 / psy_rd=1.20:0.00 / mixed_ref=1 / me_range=24 / chroma_me=1 / trellis=2 / 8x8dct=1 / cqm=0 / deadzone=21,11 / fast_pskip=1 / chroma_qp_offset=-2 / threads=12 / lookahead_threads=2 / sliced_threads=0 / nr=0 / decimate=1 / interlaced=0 / bluray_compat=0 / constrained_intra=0 / bframes=8 / b_pyramid=2 / b_adapt=2 / b_bias=0 / direct=3 / weightb=1 / open_gop=0 / weightp=2 / keyint=250 / keyint_min=24 / scenecut=40 / intra_refresh=0 / rc=crf / mbtree=0 / crf=19.0 / qcomp=0.80 / qpmin=0 / qpmax=69 / qpstep=4 / ip_ratio=1.32 / pb_ratio=1.21 / aq=3:0.70
Language : Danish
Default : Yes
Forced : No
Matrix coefficients : BT.709
DURATION : 01:32:32.500000000
NUMBER_OF_FRAMES : 133260
NUMBER_OF_BYTES : 8397151785
_STATISTICS_WRITING_APP : mkvmerge v8.5.1 ('Where you lead I will follow') 64bit
_STATISTICS_WRITING_DATE_UTC : 2016-01-03 14:32:21
_STATISTICS_TAGS : BPS DURATION NUMBER_OF_FRAMES NUMBER_OF_BYTES
Audio #1
ID : 2
Format : DTS
Format/Info : Digital Theater Systems
Mode : 16
Format settings, Endianness : Big
Codec ID : A_DTS
Duration : 1h 32mn
Bit rate mode : Constant
Bit rate : 1 509 Kbps
Channel(s) : 6 channels
Channel positions : Front: L C R, Side: L R, LFE
Sampling rate : 48.0 KHz
Bit depth : 24 bits
Compression mode : Lossy
Stream size : 999 MiB (10%)
Title : DTS 5.1 @ 1536 kbps - AVO, D.Esarev
Language : English
Default : Yes
Forced : No
Audio #2
ID : 3
Format : DTS
Format/Info : Digital Theater Systems
Mode : 16
Format settings, Endianness : Big
Codec ID : A_DTS
Duration : 1h 32mn
Bit rate mode : Constant
Bit rate : 1 509 Kbps
Channel(s) : 6 channels
Channel positions : Front: L C R, Side: L R, LFE
Sampling rate : 48.0 KHz
Bit depth : 24 bits
Compression mode : Lossy
Stream size : 999 MiB (10%)
Title : DTS 5.1 @ 1536 kbps
Language : Danish
Default : No
Forced : No
Text #1
ID : 4
Format : UTF-8
Codec ID : S_TEXT/UTF8
Codec ID/Info : UTF-8 Plain Text
Language : English
Default : No
Forced : No
Text #2
ID : 5
Format : UTF-8
Codec ID : S_TEXT/UTF8
Codec ID/Info : UTF-8 Plain Text
Language : Danish
Default : No
Forced : No
Text #3
ID : 6
Format : UTF-8
Codec ID : S_TEXT/UTF8
Codec ID/Info : UTF-8 Plain Text
Title : Forced
Language : Danish
Default : No
Forced : Yes
Text #4
ID : 7
Format : UTF-8
Codec ID : S_TEXT/UTF8
Codec ID/Info : UTF-8 Plain Text
Language : Finnish
Default : No
Forced : No
Text #5
ID : 8
Format : UTF-8
Codec ID : S_TEXT/UTF8
Codec ID/Info : UTF-8 Plain Text
Language : Norwegian
Default : No
Forced : No
Text #6
ID : 9
Format : UTF-8
Codec ID : S_TEXT/UTF8
Codec ID/Info : UTF-8 Plain Text
Language : Swedish
Default : No
Forced : No
Menu
00:00:00.000 : en:Chapter 1
00:09:59.583 : en:Chapter 2
00:19:59.792 : en:Chapter 3
00:29:59.625 : en:Chapter 4
00:39:59.958 : en:Chapter 5
00:49:59.583 : en:Chapter 6
00:59:59.917 : en:Chapter 7
01:10:00.000 : en:Chapter 8
01:20:00.000 : en:Chapter 9
01:30:00.000 : en:Chapter 10
Релиз от:
[Профиль] [ЛС]
Показать сообщения:    

Текущее время: Сегодня 07:12

Часовой пояс: GMT



Вы не можете начинать темы
Вы не можете отвечать на сообщения
Вы не можете редактировать свои сообщения
Вы не можете удалять свои сообщения
Вы не можете голосовать в опросах
Вы не можете прикреплять файлы к сообщениям
Вы не можете скачивать файлы