(Russian Rock) ВИА Земляне - Золотые Хиты (Лучшие Песни) - 2007 [FLAC, image+.cue, lossless]

 
Author Message

sergej644 ®

Gender:

Longevity: 8 years 1 month

Posts: 7321



: 10 ()

Mega Seeder 1 (1) Top Seeder 4 (1) Mega Seeder 3 (1)
Торрент-статистика

Post 13-Jan-2016 12:07

[Quote]

-ВИА Земляне - Золотые Хиты (Лучшие Песни)-- Год издания: 2007
Страна: Russia
Жанр: Russian Rock
Продолжительность: 01:16:10-Лейбл издания: Сфера Records
Страна-выпуска диска: Russia
Номер по каталогу: CD CR 671 - 07
Формат: FLAC
Битрейт аудио: lossless
Тип рипа: image +.cue
Наличие сканов в содержимом раздачи: да
-

Трэклист


01.Каскадёры (В. Мигуля - А. Дементьев)(03:30)
02.Прости , Земля (В. Добрынин - Л. Дербенёв)(05:04)
03.Трава у дома (В. Мигуля - А. Поперечный)(04:39)
04.Маленький кораблик (И. Романов - М. Пляцковский)(04:47)
05.Поверь в мечту (Ю. Антонов - И. Кохановский)(04:03)
06.А жизнь идёт (В. Добрынин - Л. Дербенёв)(03:29)
07.Взлётная полоса (В. Добрынин - М. Пляцковский)(03:31)
08.Путь домой (В. Киселёв - Б. Дубровин)(04:38)
09.Красный конь (М. Фрадкин - М. Пляцковский)(04:59)
10.Я люблю природу (Музыка и слова С. Скачков)(04:28)
11.Друг другу мы необходимы (И. Романов - Б. Дубровин)(04:36)
12.Артист (В. Киселёв - С. Будо)(04:08)
13.Мы - люди (А. Морозов - С. Романов)(03:30)
14.Цепочка (И. Киселёв - Л. Дербенёв)(05:35)
15.Представь себе (Дж. Леннон - О. Писаржевская , А. Монастырёв)(03:00)
16.Реквием (В. Мигуля - А. Очирова)(04:23)
17.Эй, страна [NEW](03:36)
18.Сынок [NEW](04:22)
-

лог создания рипа

Exact Audio Copy V1.0 beta 2 from 29. April 2011
Отчёт EAC об извлечении, выполненном 6. января 2012, 8:37
ВИА «ЗЕМЛЯНЕ» / Золотые хиты [ЛУЧШИЕ ПЕСНИ]
Дисковод: Optiarc DVD RW AD-7190A   Adapter: 0  ID: 0
Режим чтения                 : Достоверность
Использование точного потока : Да
Отключение кэша аудио        : Да
Использование указателей C2  : Нет
Коррекция смещения при чтении                     : 6
Способность читать области Lead-in и Lead-out     : Нет
Заполнение пропущенных сэмплов тишиной            : Да
Удаление блоков с тишиной в начале и конце        : Нет
При вычислениях CRC использовались нулевые сэмплы : Да
Интерфейс                                         : Встроенный Win32-интерфейс для Win NT/2000
Выходной формат : Внутренние WAV-операции
Формат сэмплов  : 44.100 Гц; 16 бит; стерео
TOC извлечённого CD
     Трек |   Старт  | Длительность | Начальный сектор | Конечный сектор
    ---------------------------------------------------------------------
       1  |  0:00.00 |    3:29.09   |           0      |      15683
       2  |  3:29.09 |    5:03.10   |       15684      |      38418
       3  |  8:32.19 |    4:38.39   |       38419      |      59307
       4  | 13:10.58 |    4:46.13   |       59308      |      80770
       5  | 17:56.71 |    4:02.65   |       80771      |      98985
       6  | 21:59.61 |    3:28.05   |       98986      |     114590
       7  | 25:27.66 |    3:30.54   |      114591      |     130394
       8  | 28:58.45 |    4:37.41   |      130395      |     151210
       9  | 33:36.11 |    4:58.57   |      151211      |     173617
      10  | 38:34.68 |    4:27.64   |      173618      |     193706
      11  | 43:02.57 |    4:35.05   |      193707      |     214336
      12  | 47:37.62 |    4:07.37   |      214337      |     232898
      13  | 51:45.24 |    3:29.01   |      232899      |     248574
      14  | 55:14.25 |    5:34.68   |      248575      |     273692
      15  | 60:49.18 |    2:59.68   |      273693      |     287185
      16  | 63:49.11 |    4:22.61   |      287186      |     306896
      17  | 68:11.72 |    3:35.54   |      306897      |     323075
      18  | 71:47.51 |    4:21.41   |      323076      |     342691
Характеристики диапазона извлечения и сообщения об ошибках
Выбранный диапазон
     Имя файла E:\ОТЕЧЕСТВЕННЫЕ [ВИА] АНСАМБЛИ\ВИА «ЗЕМЛЯНЕ» (Золотая коллекция ВИА) [LP,CD,EP] lossless\ВИА «ЗЕМЛЯНЕ» [CD]\ВИА «ЗЕМЛЯНЕ» (с) 2007 [ЗОЛОТЫЕ ХИТЫ]\ВИА «ЗЕМЛЯНЕ» - Золотые хиты [ЛУЧШИЕ ПЕСНИ].wav
     Пиковый уровень 100.0 %
     Скорость извлечения 4.1 X
     Качество диапазона 100.0 %
     CRC теста 2F9ED771
     CRC копии 2F9ED771
     Копирование... OK
Ошибок не произошло
AccurateRip: сводка
Трек  1  отсутствует в базе данных
Трек  2  отсутствует в базе данных
Трек  3  отсутствует в базе данных
Трек  4  отсутствует в базе данных
Трек  5  отсутствует в базе данных
Трек  6  отсутствует в базе данных
Трек  7  отсутствует в базе данных
Трек  8  отсутствует в базе данных
Трек  9  отсутствует в базе данных
Трек 10  отсутствует в базе данных
Трек 11  отсутствует в базе данных
Трек 12  отсутствует в базе данных
Трек 13  отсутствует в базе данных
Трек 14  отсутствует в базе данных
Трек 15  отсутствует в базе данных
Трек 16  отсутствует в базе данных
Трек 17  отсутствует в базе данных
Трек 18  отсутствует в базе данных
Ни одного трека нет в базе AccurateRip
Конец отчёта

содержание индексной карты *cue

REM GENRE Rock/Retro
REM DATE 2007
REM DISCID EE11D912
REM COMMENT "ExactAudioCopy v1.0b2"
PERFORMER "ВИА «ЗЕМЛЯНЕ»"
TITLE "Золотые хиты [ЛУЧШИЕ ПЕСНИ]"
FILE "ВИА «ЗЕМЛЯНЕ» - Золотые хиты [ЛУЧШИЕ ПЕСНИ].flac" WAVE
  TRACK 01 AUDIO
    TITLE "Каскадёры (В. Мигуля - А. Дементьев)"
    PERFORMER "ВИА «ЗЕМЛЯНЕ»"
    INDEX 01 00:00:00
  TRACK 02 AUDIO
    TITLE "Прости , Земля (В. Добрынин - Л. Дербенёв)"
    PERFORMER "ВИА «ЗЕМЛЯНЕ»"
    INDEX 01 03:29:09
  TRACK 03 AUDIO
    TITLE "Трава у дома (В. Мигуля - А. Поперечный)"
    PERFORMER "ВИА «ЗЕМЛЯНЕ»"
    INDEX 01 08:32:19
  TRACK 04 AUDIO
    TITLE "Маленький кораблик (И. Романов - М. Пляцковский)"
    PERFORMER "ВИА «ЗЕМЛЯНЕ»"
    INDEX 01 13:10:58
  TRACK 05 AUDIO
    TITLE "Поверь в мечту (Ю. Антонов - И. Кохановский)"
    PERFORMER "ВИА «ЗЕМЛЯНЕ»"
    INDEX 01 17:56:71
  TRACK 06 AUDIO
    TITLE "А жизнь идёт (В. Добрынин - Л. Дербенёв)"
    PERFORMER "ВИА «ЗЕМЛЯНЕ»"
    INDEX 01 21:59:61
  TRACK 07 AUDIO
    TITLE "Взлётная полоса (В. Добрынин - М. Пляцковский)"
    PERFORMER "ВИА «ЗЕМЛЯНЕ»"
    INDEX 01 25:27:66
  TRACK 08 AUDIO
    TITLE "Путь домой (В. Киселёв - Б. Дубровин)"
    PERFORMER "ВИА «ЗЕМЛЯНЕ»"
    INDEX 01 28:58:45
  TRACK 09 AUDIO
    TITLE "Красный конь (М. Фрадкин - М. Пляцковский)"
    PERFORMER "ВИА «ЗЕМЛЯНЕ»"
    INDEX 01 33:36:11
  TRACK 10 AUDIO
    TITLE "Я люблю природу (Музыка и слова С. Скачков)"
    PERFORMER "ВИА «ЗЕМЛЯНЕ»"
    INDEX 01 38:34:68
  TRACK 11 AUDIO
    TITLE "Друг другу мы необходимы (И. Романов - Б. Дубровин)"
    PERFORMER "ВИА «ЗЕМЛЯНЕ»"
    INDEX 01 43:02:57
  TRACK 12 AUDIO
    TITLE "Артист (В. Киселёв - С. Будо)"
    PERFORMER "ВИА «ЗЕМЛЯНЕ»"
    INDEX 01 47:37:62
  TRACK 13 AUDIO
    TITLE "Мы - люди (А. Морозов - С. Романов)"
    PERFORMER "ВИА «ЗЕМЛЯНЕ»"
    INDEX 01 51:45:24
  TRACK 14 AUDIO
    TITLE "Цепочка (И. Киселёв - Л. Дербенёв)"
    PERFORMER "ВИА «ЗЕМЛЯНЕ»"
    INDEX 01 55:14:25
  TRACK 15 AUDIO
    TITLE "Представь себе (Дж. Леннон - О. Писаржевская , А. Монастырёв)"
    PERFORMER "ВИА «ЗЕМЛЯНЕ»"
    INDEX 01 60:49:18
  TRACK 16 AUDIO
    TITLE "Реквием (В. Мигуля - А. Очирова)"
    PERFORMER "ВИА «ЗЕМЛЯНЕ»"
    INDEX 00 63:48:43
    INDEX 01 63:49:11
  TRACK 17 AUDIO
    TITLE "Эй, страна [NEW]"
    PERFORMER "ВИА «ЗЕМЛЯНЕ»"
    INDEX 01 68:11:72
  TRACK 18 AUDIO
    TITLE "Сынок [NEW]"
    PERFORMER "ВИА «ЗЕМЛЯНЕ»"
    INDEX 01 71:47:51

Лог Audiochecker:

AUDIOCHECKER v2.0 beta (build 457) - by Dester - opdester@freemail.hu
~~~~~~~~~~~~~~~~~~~~~~~~~~~~~~~~~~
-=== DO NOT EDIT THIS FILE! ===-
Path: ...\ВИА «ЗЕМЛЯНЕ» (с) 2007 [ЗОЛОТЫЕ ХИТЫ]
1 -=- ВИА «ЗЕМЛЯНЕ» - Золотые хиты [ЛУЧШИЕ ПЕСНИ].wav -=- CDDA (100%)
452484
-- --
[Profile] [PM]
Display posts from previous:    

The time now is: Today 23:11

All times are GMT



You cannot post new topics in this forum
You cannot reply to topics in this forum
You cannot edit your posts in this forum
You cannot delete your posts in this forum
You cannot vote in polls in this forum
You cannot attach files in this forum
You cannot download files in this forum