80-е: Десятилетие, которое сотворило нас / The 80s: The Decade That Made Us (Джонатан Рудд / Jonathan Rudd) (1-8 из ? серий) [Документальный, DVB-S2 Remux 1080i] VO

 
Автор Сообщение

TorrentFilm ®

Пол:

Стаж: 2 года

Сообщений: 7741



Награды: Нет

Торрент-статистика

Создавать темы 06-Янв-2015 00:00

[Цитировать]

80-е: Десятилетие, которое сотворило нас
The 80's: The Decade That Made Us
-
Год выпуска: 2013
Страна: США
Жанр: Документальный, познавательный, новая история
Продолжительность: 8 x ~ 00:46:00
Перевод: Профессиональный (одноголосый закадровый) АРК-ТВ
Субтитры: Нет-Режиссер: Джонатан Рудд / Jonathan Rudd
Производство: Twofour Broadcast LTD, National Geographic Cannels- -Семпл: Скачать
Рейтинг: http://www.imdb.com/title/tt2801364/
Все раздачи: 80-е: Десятилетие, которое сотворило нас-Описание:
Путешествие во времена, наполненные незабываемыми моментами истории, культурными событиями, новыми тенденциями и технологиями 80-х годов, которые сформировали мир таким, каким мы знаем его сегодня. Снятая в стиле программы «История о нас», эта программа представит вам интервью с ключевыми фигурами десятилетия, музыку, фотографии и реконструкции прошлого.-Формат: DVB-S2 Remux 1080i
Видео кодек: AVC
Аудио кодеk: AC3
Видео: 1920x1080 (16:9), 25 fps, AVC, ~8400 Кбит/сек
Аудио: Russian: AC3 5.1 (48 kHz / 448 kbps / 16 bit) (Одноголосый закадровый)
-

Описание эпизодов:


01. Взлёт (Старт !)
Мы посмотрим, как 1980-е сформировали наш сегодняшний мир, и начнем с персональных развлечений — игры "Пакман", аудиоплеера и видео с аэробикой.-02. Революционеры
Рассказ о людях и событиях, сформировавших сегодняшний мир, от попытки покушения на Рональда Рейгана до Стива Джобса и джинсов "Levi's".-03. Шоппинг до упада
Рассказ о важнейших событиях и явлениях 80-х, повлиявших на то, как выглядит наш мир сегодня, от Мадонны до яппи и первых сотовых телефонов.-04. Властелины мира
Описания не нашел. Так как данный выпуск не показали по National Geographic Россия-05. Снесите эти стены
Хотя 1980-е и известны лозунгом «жадность — это хорошо», именно в это десятилетие были разрушены многие стены, как реальные, так и культурные.-06. Сверхдержава
К концу 80-х американская поп-культура становится глобальной, способствуя падению железного занавеса, и в мире остается одна сверхдержава — США.-07. Величайшие технические новинки
От кассетных плееров до компакт-дисков — узнайте, как технология начала определять не только то, что мы могли делать, но и то, кем мы были.-08. Величайшие трагедии
От катастрофы космического корабля "Челленджер" до аварии на Чернобыльской АЭС — взгляд на самые страшные трагедии того десятилетия.

MediaInfo

Общее
Идентификатор                            : 1 (0x1)
Полное имя                               : The 80s. The Decade That Made Us [HDTV.1080i]\03. Шоппинг до упада.ts
Формат                                   : MPEG-TS
Размер файла                             : 3,15 Гбайт
Продолжительность                        : 44 м.
Режим общего битрейта                    : Переменный
Общий поток                              : 10,0 Мбит/сек
Максимальный общий битрейт               : 35,5 Мбит/сек
Видео
Идентификатор                            : 4113 (0x1011)
Идентификатор меню                       : 1 (0x1)
Формат                                   : AVC
Формат/Информация                        : Advanced Video Codec
Профиль формата                          : Main@L4.0
Параметр CABAC формата                   : Да
Параметр ReFrames формата                : 3 кадра
Идентификатор кодека                     : 27
Продолжительность                        : 45 м.
Вид битрейта                             : Переменный
Битрейт                                  : 9085 Кбит/сек
Максимальный битрейт                     : 40,0 Мбит/сек
Ширина                                   : 1920 пикселей
Высота                                   : 1080 пикселей
Соотношение сторон                       : 16:9
Частота кадров                           : 25,000 кадров/сек
Стандарт вещания                         : Component
Цветовое пространство                    : YUV
Субдискретизация насыщенности            : 4:2:0
Битовая глубина                          : 8 бит
Тип развёртки                            : Чересстрочная
Порядок развёртки                        : Верхнее поле первое
Бит/(Пиксели*Кадры)                      : 0.175
Размер потока                            : 2,86 Гбайт (91%)
Основные цвета                           : BT.709
Характеристики трансфера                 : BT.709
Коэффициенты матрицы                     : BT.709
colour_range                             : Limited
Аудио
Идентификатор                            : 4352 (0x1100)
Идентификатор меню                       : 1 (0x1)
Формат                                   : AC-3
Формат/Информация                        : Audio Coding 3
Расширение режима                        : CM (complete main)
Параметр Endianness формата              : Big
Идентификатор кодека                     : 129
Продолжительность                        : 44 м.
Вид битрейта                             : Постоянный
Битрейт                                  : 448 Кбит/сек
Каналы                                   : 6 каналов
Расположение каналов                     : Front: L C R, Side: L R, LFE
Частота                                  : 48,0 КГц
Битовая глубина                          : 16 бит
Метод сжатия                             : С потерями
Размер потока                            : 144 Мбайт (4%)
Язык                                     : Russian

Скриншоты:

-Внимание! Раздача не полная! Возможно в будущем будет обновление.
Подробности в первом сообщении раздачи-
[Профиль] [ЛС]
Кто просматривает тему:

Показать сообщения:    

Текущее время: Сегодня 12:52

Часовой пояс: GMT



Вы не можете начинать темы
Вы не можете отвечать на сообщения
Вы не можете редактировать свои сообщения
Вы не можете удалять свои сообщения
Вы не можете голосовать в опросах
Вы не можете прикреплять файлы к сообщениям
Вы не можете скачивать файлы