8 первых свиданий (Дэвид Додсон, Александр Маляревский) [2012, Россия, Мелодрама, комедия, BD>DVD9 (Custom)]

 
Автор Сообщение

TorrentFilm ®

Пол:

Стаж: 1 год 11 месяцев

Сообщений: 7741



Награды: Нет

Торрент-статистика

Создавать темы 02-Янв-2016 00:03

[Цитировать]

8 первых свиданий- Страна: Россия
Студия: Квартал-95
Жанр: Мелодрама, комедия
Год выпуска: 2012
Продолжительность: 01:26:33-Перевод: Оригинал
Cубтитры: нет
Оригинальная аудиодорожка: русский-Режиссер: Дэвид Додсон, Александр Маляревский
В ролях: Оксана Акиньшина, Владимир Зеленский, Денис Никифоров, Екатерина Варнава, Сабина Ахмедова, Ильдар Аллабирдин, Сергей Барковский, Наталья Иохвидова, Игорь Жижикин, Елена Кондулайнен, Евгений Кошевой, Мария Кравцова, Александр Маляревский, Костя Наконечный, Сосо Павлиашвили, Мария Петровская, Андрей Щукин, Виктор Васильев, Наталья Вихрян, Олеся Железняк, Дамир Коломийченко, Юлия Беретта
Описание: Вера — телезвезда, ее жених Константин — профессиональный теннисист. Они собираются пожениться. Никита врач-ветеринар и красавица-хирург Илона также спешат оформить отношения. Но одно прекрасное утро разрушает все планы. После веселого вечера Вера просыпается в одной постели с Никитой. Решив, что это последствия слишком бурной вечеринки, молодые люди разъезжаются в разные стороны. Но следующим днем все повторяется — Никита и Вера снова вместе, хотя каждый хорошо помнит, как они засыпали дома — каждый у себя… Так происходит всю последующую неделю. Какие-то таинственные силы устраивают эти неожиданные «свидания», кто-то хочет разрушить их браки, а может быть просто доказать, что они созданы друг для друга?-Доп. информация: Релиз сделан из ремукса, скаченного в сети. Оттуда же взяты аудиодорожкиа и перетянута из 24 фпс в 23,976. Меню взято с двд, скаченного в сети и несколько переработано. Двд собрал в DVD Lab. Главы расставил так же, как они располагаются на двд. Видео сжато Pro Coder в 2 прохода по этой инструкции. За столь ценное руководство спасибо Mikky72. Отдельная благодарность уходит ZVNV, который стойко выдержал испытание моими глупыми и не очень вопросами Еще одно спасибо AlsKnight за решение проблемы с кадрами.-Релиз групп: -
СЭМПЛ
-Меню: Есть, на русском языке, статичное, озвученное-Тип релиза: DVD9 (Custom)
Контейнер: DVD-Video
Видео: NTSC 16:9 (720x480) VBR
Аудио : Русский (Dolby AC3, 6 ch, 448 кб/с)-

DVDInfo

Size: 6.00 Gb ( 6 295 364 KBytes ) - DVD-9
Enabled regions: 1, 2, 3, 4, 5, 6, 7, 8
VTS_01 :
Play Length: 01:26:33
Video: NTSC 16:9 (720x480) VBR, Auto Pan&Scan
Audio:
Russian (Dolby AC3, 6 ch)
Menu Video:
NTSC 4:3 (720x480) VBR
Menu English Language Unit :
Root Menu

MI исходника

Формат : Matroska
Версия формата : Version 2
Размер файла : 14,2 Гбайт
Продолжительность : 1 ч. 26 м.
Режим общего битрейта : Переменный
Общий поток : 23,5 Мбит/сек
Дата кодирования : UTC 2012-04-11 06:59:15
Программа кодирования : mkvmerge v5.5.0 ('Healer') built on Apr 6 2012 21:43:24
Библиотека кодирования : libebml v1.2.3 + libmatroska v1.3.0
Видео
Идентификатор : 1
Формат : MPEG Video
Версия формата : Version 2
Профиль формата : Main@High
Параметр BVOP формата : Нет
Параметр матрицы формата : По умолчанию
Идентификатор кодека : V_MPEG2
Идентификатор кодека/Информация : MPEG 1 or 2 Video
Продолжительность : 1 ч. 26 м.
Вид битрейта : Переменный
Битрейт : 22,4 Мбит/сек
Максимальный битрейт : 25,0 Мбит/сек
Ширина : 1920 пикселей
Высота : 1080 пикселей
Соотношение сторон : 16:9
Частота кадров : 24,000 кадра/сек
Цветовое пространство : YUV
Субдискретизация насыщенности : 4:2:0
Битовая глубина : 8 бит
Тип развёртки : Прогрессивная
Метод сжатия : С потерями
Бит/(Пиксели*Кадры) : 0.450
Размер потока : 13,5 Гбайт (95%)
Аудио
Идентификатор : 2
Формат : AC-3
Формат/Информация : Audio Coding 3
Расширение режима : CM (complete main)
Режим смешивания : Header stripping
Идентификатор кодека : A_AC3
Продолжительность : 1 ч. 26 м.
Вид битрейта : Постоянный
Битрейт : 640 Кбит/сек
Каналы : 6 каналов
Расположение каналов : Front: L C R, Side: L R, LFE
Частота : 48,0 КГц
Битовая глубина : 16 бит
Метод сжатия : С потерями
Размер потока : 396 Мбайт (3%)
Язык : Russian
Скриншоты">

Скриншоты меню Скриншоты


Скрипт

LoadPlugin("C:\Users\SkyWalker\Desktop\DGDecodeNV\DGDecodeNV.dll")
DGSource("project.dgi") #если в исходнике отсутствуют артефакты
LoadPlugin("C:\Program Files\AutoYUY2\AutoYUY2.dll") #более медленный, но качественный аналог ConvertToYUY2()
AutoYUY2()
LoadPlugin("C:\Program Files\ColorMatrix\ColorMatrix.dll")
ColorMatrix(mode="Rec.709->Rec.601", inputFR=false, clamp=0) #корректировка цветовой шкалы, если проверка показывает 16-235
AssumeFPS("ntsc_film")
BicubicResize(720, 480, 0, 0.5) #ресайз методом Catmull-Rom spline
AddBorders (0,0,0,0) #bbb=00

Программы, используемые при создание этого релиза

Видео
Rhozet Carbon Coder - конвертация видео
AviSynth - обработка видео
DGDecodeNV - индексирование
Програмы для разборки/сборки ДВД
PgcDemux - демукс исходного DVD
tsMuxeR - разборка ремукса
MuxMan - сборка видео
Работа со звуком
DelayCut - синхронизация звука
TranzcodeGUI - извлечение wav
Sonic Foundry Soft Encode - кодирование и сборка ac3 дорожки
SurCode DVD-DTS - сборка ДТС
Работа с субтитрами
DVDSubEdit - корректировка таймингов и расположения на экране субтитров
Работа с меню и реавторинг
Adobe Photoshop - редактирование меню
DVDReMakePro - реавторинг диска

Точка перехода

[Профиль] [ЛС]
Показать сообщения:    

Текущее время: Сегодня 11:56

Часовой пояс: GMT



Вы не можете начинать темы
Вы не можете отвечать на сообщения
Вы не можете редактировать свои сообщения
Вы не можете удалять свои сообщения
Вы не можете голосовать в опросах
Вы не можете прикреплять файлы к сообщениям
Вы не можете скачивать файлы