7 дней в аду / 7 Days in Hell (2015) HDTV 720p | L

 
Автор Сообщение

достали все ®

Пол:

Стаж: 1 год 8 месяцев

Сообщений: 6545



Награды: 12 (Подробнее)

Mega Seeder 1 (Количество: 1) Mega Seeder 5 (Количество: 1) Mega Releaser 3 (Количество: 1)
Торрент-статистика

Создавать темы 20-Июл-2015 08:32

[Цитировать]

Информация о фильме
Название: 7 дней в аду
Оригинальное название: 7 Days in Hell
Год выхода: 2015
Жанр: Комедия, спорт
Режиссер: Джейк Зиманский
В ролях: Энди Сэмберг, Кит Харингтон, Карен Гиллан, Майкл Шин, Мэри Стинберген, Лина Данэм, Уилл Форте, Серена Уильямс, Хоуи Мэндел, Фред Армисен
О фильме:
Вымышленная история о соперничестве между двумя теннисистами, которые сразились в 2004 году в матче, который длился семь дней.

Выпущено: США, Канада /,Arctica Films
Продолжительность: 00:41:56
Перевод: Любительский многоголосый [GladiolusTV]
Файл
Формат: MKV
Качество: HDTV 720p
Видео: MPEG-4 AVC, 3500 Кбит/с, 1280x720
Звук: Русский (АС3, 6 ch, 448 Кбит/с), английский (АС3, 6 ch, 384 Кбит/с)
Семпл

MI

Общее
Уникальный идентификатор : 193373791321908481961745130090794605727 (0x917A7001176D9AF5C9CBEBB102485C9F)
Полное имя : E:Кинозал - 17.Dney.Y.4Du.2015.L.HDTV.720p.mkv
Формат : Matroska
Версия формата : Version 4 / Version 2
Размер файла : 1,71 Гбайт
Продолжительность : 42 м.
Общий поток : 5823 Кбит/сек
Дата кодирования : UTC 2015-07-19 02:09:20
Программа кодирования : mkvmerge v7.8.0 ('River Man') 64bit
Библиотека кодирования : libebml v1.3.1 + libmatroska v1.4.2
DURATION : 00:41:56.736000000
NUMBER_OF_FRAMES : 78648
NUMBER_OF_BYTES : 120803328
_STATISTICS_WRITING_APP : mkvmerge v7.8.0 ('River Man') 64bit
_STATISTICS_WRITING_DATE_UTC : 2015-07-19 02:09:20
_STATISTICS_TAGS : BPS DURATION NUMBER_OF_FRAMES NUMBER_OF_BYTES
Видео
Идентификатор : 1
Формат : AVC
Формат/Информация : Advanced Video Codec
Профиль формата : High@L4.1
Параметр CABAC формата : Да
Параметр ReFrames формата : 9 кадров
Идентификатор кодека : V_MPEG4/ISO/AVC
Продолжительность : 42 м.
Битрейт : 5000 Кбит/сек
Ширина : 1280 пикселей
Высота : 720 пикселей
Соотношение сторон : 16:9
Режим частоты кадров : Постоянный
Частота кадров : 23,976 кадра/сек
Цветовое пространство : YUV
Субдискретизация насыщенности : 4:2:0
Битовая глубина : 8 бит
Тип развёртки : Прогрессивная
Бит/(Пиксели*Кадры) : 0.226
Размер потока : 1,43 Гбайт (84%)
Библиотека кодирования : x264 core 142 r2479 dd79a61
Настройки программы : cabac=1 / ref=9 / deblock=1:0:0 / analyse=0x3:0x133 / me=umh / subme=10 / psy=1 / psy_rd=1.00:0.00 / mixed_ref=1 / me_range=24 / chroma_me=1 / trellis=2 / 8x8dct=1 / cqm=0 / deadzone=21,11 / fast_pskip=1 / chroma_qp_offset=-2 / threads=12 / lookahead_threads=2 / sliced_threads=0 / nr=0 / decimate=1 / interlaced=0 / bluray_compat=0 / constrained_intra=0 / bframes=8 / b_pyramid=2 / b_adapt=2 / b_bias=0 / direct=3 / weightb=1 / open_gop=0 / weightp=2 / keyint=240 / keyint_min=24 / scenecut=40 / intra_refresh=0 / rc_lookahead=60 / rc=2pass / mbtree=1 / bitrate=5000 / ratetol=1.0 / qcomp=0.60 / qpmin=0 / qpmax=69 / qpstep=4 / cplxblur=20.0 / qblur=0.5 / vbv_maxrate=62500 / vbv_bufsize=78125 / nal_hrd=none / filler=0 / ip_ratio=1.40 / aq=1:1.00
Default : Да
Forced : Нет
Основные цвета : BT.709
Характеристики трансфера : BT.709
Коэффициенты матрицы : BT.709
DURATION : 00:41:56.639000000
NUMBER_OF_FRAMES : 60339
NUMBER_OF_BYTES : 1572940935
_STATISTICS_WRITING_APP : mkvmerge v7.8.0 ('River Man') 64bit
_STATISTICS_WRITING_DATE_UTC : 2015-07-19 02:09:20
_STATISTICS_TAGS : BPS DURATION NUMBER_OF_FRAMES NUMBER_OF_BYTES
Аудио #1
Идентификатор : 2
Формат : AC-3
Формат/Информация : Audio Coding 3
Расширение режима : CM (complete main)
Параметр Endianness формата : Big
Идентификатор кодека : A_AC3
Продолжительность : 42 м.
Вид битрейта : Постоянный
Битрейт : 448 Кбит/сек
Каналы : 6 каналов
Расположение каналов : Front: L C R, Side: L R, LFE
Частота : 48,0 КГц
Битовая глубина : 16 бит
Метод сжатия : С потерями
Задержка видео : -83 мс.
Размер потока : 135 Мбайт (8%)
Заголовок : GladiolusTV
Язык : Russian
Default : Да
Forced : Нет
Аудио #2
Идентификатор : 3
Формат : AC-3
Формат/Информация : Audio Coding 3
Расширение режима : CM (complete main)
Параметр Endianness формата : Big
Идентификатор кодека : A_AC3
Продолжительность : 42 м.
Вид битрейта : Постоянный
Битрейт : 384 Кбит/сек
Каналы : 6 каналов
Расположение каналов : Front: L C R, Side: L R, LFE
Частота : 48,0 КГц
Битовая глубина : 16 бит
Метод сжатия : С потерями
Задержка видео : -83 мс.
Размер потока : 115 Мбайт (7%)
Заголовок : Оригинал
Язык : English
Default : Нет
Forced : Нет

Скриншоты

[Профиль] [ЛС]
Кто просматривает тему:

Форум Тема Автор Размер
Фильмы 2015 года 7 дней в аду / 7 Days in Hell (2015) HDTVRip | P достали все 700 MB
Показать сообщения:    

Текущее время: Сегодня 20:40

Часовой пояс: GMT



Вы не можете начинать темы
Вы не можете отвечать на сообщения
Вы не можете редактировать свои сообщения
Вы не можете удалять свои сообщения
Вы не можете голосовать в опросах
Вы не можете прикреплять файлы к сообщениям
Вы не можете скачивать файлы