7 гномов / The 7D [s01] (2014) WEB-DLRip 720p | D

 
Автор Сообщение

достали все ®

Пол:

Стаж: 1 год 8 месяцев

Сообщений: 6571



Награды: 12 (Подробнее)

Mega Releaser 1 (Количество: 1) Mega Seeder 4 (Количество: 1) За внесенный вклад в развитие сайта (Количество: 1)
Торрент-статистика

Создавать темы 06-Фев-2016 05:59

[Цитировать]

Информация о фильме:
● Название: 7 гномов
● Оригинальное название: The 7D
● Год выхода: 2014
● Страна: США
● Студия: Walt Disney Television Animation
● Жанр: Мультсериал, детский, семейный, приключения
● Режиссер: Альфред Гимено, Джефф Гордон, Чарльз Виссер
● В ролях: Морис ЛаМарш, Ди Брэдли Бейкер, Билл Фармер, Скотт Менвилль, Кевин Майкл Ричардсон, Стефен Стэнтон, Билли Уэст, Ли-Эллин Бейкер, Пол Ругг, Джесс Харнелл
● Продолжительность: 24 x 00:24:01
● Перевод: Дублированный

Описание фильма:
Любимые герои возвращаются! В новом современном мультсериале "7 гномов" зрителей ждет встреча со знаменитой компанией друзей. Умник, Простачок, Скромник, Ворчун, Чихун, Соня и Весельчак знакомы миллионам людей во всем мире по непревзойденному шедевру анимации Disney "Белоснежка и Семь гномов"! В центре сюжета нового анимационного проекта - приключения друзей в волшебном королевстве, спокойствие которого постоянно хотят нарушить местные злодеи. Гномики никогда не падают духом, ведь главное средство против всех бед - сила настоящей дружбы!

Информация о файле:
● Кодек: AVC
● Формат: MP4
● Качество: WEB-DLRip 720p
● Видео: 1280x720 (16:9), 23.976 fps, AVC ~1598 kbps, 0.072 bit/pixel
● Аудио Rus: 48 kHz, AAC, 2/0 (L,R) ch, ~128 kbps

Семпл
Релиз от:

✔ Скриншоты

✔ Список серий

01. The Long, Long Winter - The Itsy Bitsy Spider Fighters / Долгая, долгая зима - У страха глаза велики
02. Sneezin' Season - The Delightful Diamond Mystery / Чихательный сезон - Тайна бриллианта Великолепия
03. Mirror, Mirror - The Big Bash / Свет мой, зеркальце - Большой Скром
04. Surprise - Welcome to the Neighborhood / Сюрприз - Добро пожаловать к нам
05. Sir Yipsalot and the Goose - Starchy Takes a Break / Сэр Тявколот и Гусь - Отпуск лорда Чопорсона
06. The Littlest Giants - Gnome Alone / Крошечные гиганты - Гном один дома
07. Sleepytime - Goldilocks and the 7D / Пора спать - Златовласка и семь гномов
08. For the Love of Cheese - Let's Get Organ-ized / Ради сыра на земле - Давайте орган-изованей!
09. Grampa Grumpy and the Ogre - The Fairest in the Land / Дедушка Ворчун и Огр - Кто на свете всех милее
10. The 8th D - New Shoe / Восьмой гном - Новый ботинок
11. Bathtub Bashful - Knick Knack Paddy Whack / Певец в душе - Безделушка-побрякушка
12. Grim the Dragon - Free Teensy / Дракон Грим - Свободу Крошке
13. The Jollywood Jam - Hildy the Good / Приколивуд-ревю - Добрая Хильди
14. Buckets - Frankengloom / Бадди - Франкенхмур
15. Uncle Humidor - Grim the Genius / Дядя Хьюмидор - Грим-гений!
16. The Enchanted Shoes - Hildyrella / Волшебные туфли - Золушка Хильди
17. Big Bad Sneezy - Cat on a Hot Grim Roof / Большой и страшный Чихун - Кошка на раскалённой крыше
18. Gingersnaps and Grumpy Snaps - Jollybells / Печенюшка и Ворчунишка - Колокольчики звенят
19. The Very Important Thingy .-. Leaf It To Sneezy / Очень важная штуковина - Чихун и листья
20. 7 Frogs - Sir Yipsalot and the Mutt / Семь лягушек - Сэр Тявколот и дворняшка
21. The Queen's Quest - Finders Keepers / Королевский поход - Находильщик
22. Abraca-Dopey - Bing Bong Beans / Простачок-фокусник - Бобы Динь-Дон
23. Doing the 7D Dance - Big Rock Candy Flim-Flam / Танец семи гномов - Большой леденцовый кристалл
24. The Rock of Sages / Камень мудрецов

✔ MI]

Общее
Полное имя: D:MR_eng_seriesThe 7D. 2014. mp4. WEB-DL (1280x720)s01e01. The Long, Long Winter .-. The Itsy Bitsy Spider Fighters.mp4
Формат: MPEG-4
Профиль формата: Base Media
Идентификатор кодека: isom
Размер файла: 301 Мбайт
Продолжительность: 24 м.
Режим общего битрейта: Переменный
Общий поток: 1730 Кбит/сек
Дата кодирования: UTC 2015-07-27 09:40:21
Дата пометки: UTC 2015-07-27 09:40:21
Видео
Идентификатор: 1
Формат: AVC
Формат/Информация: Advanced Video Codec
Профиль формата: High@L4.1
Параметр CABAC формата: Да
Параметр ReFrames формата: 5 кадров
Идентификатор кодека: avc1
Идентификатор кодека/Информация: Advanced Video Coding
Продолжительность: 24 м.
Битрейт: 1598 Кбит/сек
Максимальный битрейт: 6936 Кбит/сек
Ширина: 1280 пикселей
Высота: 720 пикселей
Соотношение сторон: 16:9
Режим частоты кадров: Постоянный
Частота кадров: 23,976 кадра/сек
Цветовое пространство: YUV
Субдискретизация насыщенности: 4:2:0
Битовая глубина: 8 бит
Тип развёртки: Прогрессивная
Бит/(Пиксели*Кадры): 0.072
Размер потока: 278 Мбайт (92%)
Библиотека кодирования: x264 core 142 r2431 ac76440
Настройки программы: cabac=1 / ref=5 / deblock=1:0:0 / analyse=0x3:0x113 / me=umh / subme=8 / psy=1 / psy_rd=1.00:0.00 / mixed_ref=1 / me_range=16 / chroma_me=1 / trellis=1 / 8x8dct=1 / cqm=0 / deadzone=21,11 / fast_pskip=1 / chroma_qp_offset=-2 / threads=6 / lookahead_threads=1 / sliced_threads=0 / nr=0 / decimate=1 / interlaced=0 / bluray_compat=0 / constrained_intra=0 / bframes=3 / b_pyramid=2 / b_adapt=2 / b_bias=0 / direct=3 / weightb=1 / open_gop=0 / weightp=2 / keyint=240 / keyint_min=23 / scenecut=40 / intra_refresh=0 / rc_lookahead=50 / rc=crf / mbtree=1 / crf=23.0 / qcomp=0.60 / qpmin=0 / qpmax=69 / qpstep=4 / vbv_maxrate=31250 / vbv_bufsize=31250 / crf_max=0.0 / nal_hrd=none / filler=0 / ip_ratio=1.40 / aq=1:1.00
Дата кодирования: UTC 2015-07-27 09:40:21
Дата пометки: UTC 2015-07-27 09:40:37
Коэффициенты матрицы: BT.709
colour_range: Limited
Аудио
Идентификатор: 2
Формат: AAC
Формат/Информация: Advanced Audio Codec
Профиль формата: LC
Идентификатор кодека: 40
Продолжительность: 24 м.
Вид битрейта: Переменный
Битрейт: 128 Кбит/сек
Максимальный битрейт: 148 Кбит/сек
Каналы: 2 канала
Расположение каналов: Front: L R
Частота: 48,0 КГц
Метод сжатия: С потерями
Размер потока: 22,2 Мбайт (7%)
Дата кодирования: UTC 2015-07-27 09:40:36
Дата пометки: UTC 2015-07-27 09:40:37
[Профиль] [ЛС]
Кто просматривает тему:

Показать сообщения:    

Текущее время: Сегодня 00:36

Часовой пояс: GMT



Вы не можете начинать темы
Вы не можете отвечать на сообщения
Вы не можете редактировать свои сообщения
Вы не можете удалять свои сообщения
Вы не можете голосовать в опросах
Вы не можете прикреплять файлы к сообщениям
Вы не можете скачивать файлы