600 миль / 600 Millas (2015) BDRip | А

 
Автор Сообщение

достали все ®

Пол:

Стаж: 1 год 8 месяцев

Сообщений: 6542



Награды: 12 (Подробнее)

Top Releaser 3 (Количество: 1) Mega Seeder 4 (Количество: 1) Mega Seeder 2 (Количество: 1)
Торрент-статистика

Создавать темы 30-Сен-2016 14:03

[Цитировать]

600 миль / 600 Miles / 600 Millas
Страна: Мексика США
Производство: Lucia Films
Год выпуска: 2015
Жанр: триллер, драма
Продолжительность: 01:20:28
Режиссер: Гэбриел Рипштейн
Авторы сценария: Гэбриел Рипштейн, Исса Лопес
В ролях: Тим Рот, Кристиан Феррер, Моника дель Кармен, Крэйг Хенсли, Харрис Кендалл, Грег Лутс, Фаусто Олмос Рентерия
Описание: Агент по борьбе с незаконным оборотом алкоголя, табака и оружия Хэнк Харрис преследует Арнульфо Рубио — молодого человека, который торгует оружием между США и Мексикой. После того, как Харрис допускает грубую ошибку, Рубио принимает отчаянное решение: он похищает агента и увозит его в Мексику. И пока двое явных врагов медленно сближаются, их поджидает опасность. Единственный выход из ситуации — доверять друг другу...

Перевод: Авторский (одноголосый, закадровый) | Антон Карповский
Субтитры: нет-Качество: BDRip | исходник Blu-Ray (FRA) - 600.Miles.2015.COMPLETE.FR.BLURAY
Формат: АVI
Видео кодек: XviD
Аудио кодек: АС3
Видео: 720x384 (1.85:1), 25.000 fps, XviD build 67 ~1 967 kbps avg, 0.285 bit/pixel
Аудио: 48 kHz, AC3 Dolby Digital, 3/2 (L,C,R,l,r) + LFE ch, ~448 kbps
Дата премьеры (мир): 6 февраля 2015ВНИМАНИЕ! Присутствует
ненормативная лексика

Релиз от: ylnian
Сборка дороги: rammzez

Media Info

General
Полное имя : 600.Millas.2015.BDRip-ylnian.avi
Формат : AVI
Формат/Информация : Audio Video Interleave
Размер файла : 1,36 Гбайт
Продолжительность : 1 ч. 20 м.
Общий поток : 2424 Кбит/сек
Программа кодирования : VirtualDubMod 1.5.10.2 (build 2540/release)
Библиотека кодирования : VirtualDubMod build 2540/release
Видео
Идентификатор : 0
Формат : MPEG-4 Visual
Профиль формата : Advanced Simple@L5
Параметр BVOP формата : 1
Параметр QPel формата : Нет
Параметр GMC формата : Без точки перехода
Параметр матрицы формата : Default (MPEG)
Идентификатор кодека : XVID
Идентификатор кодека/Подсказка : XviD
Продолжительность : 1 ч. 20 м.
Битрейт : 1967 Кбит/сек
Ширина : 720 пикселей
Высота : 384 пикселя
Соотношение сторон : 1,85:1
Частота кадров : 25,000 кадров/сек
Цветовое пространство : YUV
Субдискретизация насыщенности : 4:2:0
Битовая глубина : 8 бит
Тип развёртки : Прогрессивная
Метод сжатия : С потерями
Бит/(Пиксели*Кадры) : 0.285
Размер потока : 1,11 Гбайт (81%)
Библиотека кодирования : XviD 67
Аудио
Идентификатор : 1
Формат : AC-3
Формат/Информация : Audio Coding 3
Расширение режима : CM (complete main)
Параметр Endianness формата : Big
Идентификатор кодека : 2000
Продолжительность : 1 ч. 20 м.
Вид битрейта : Постоянный
Битрейт : 448 Кбит/сек
Каналы : 6 каналов
Расположение каналов : Front: L C R, Side: L R, LFE
Частота : 48,0 КГц
Частота кадров : 31,250 кадров/сек (1536 spf)
Метод сжатия : С потерями
Размер потока : 258 Мбайт (18%)
Выравнивание : Разделение по промежуткам
Продолжительность промежутка : 40 мс. (1,00 видеокадр)
Время предзагрузки промежутка : 500 мс.
Заголовок : RUS - AVO - Karpovsky

Скриншоты

[Профиль] [ЛС]
Показать сообщения:    

Текущее время: Сегодня 10:32

Часовой пояс: GMT



Вы не можете начинать темы
Вы не можете отвечать на сообщения
Вы не можете редактировать свои сообщения
Вы не можете удалять свои сообщения
Вы не можете голосовать в опросах
Вы не можете прикреплять файлы к сообщениям
Вы не можете скачивать файлы