6 способов умереть / 6 Ways to Sundown (Надим Сума / Nadeem Soumah) [2015, США, боевик, триллер, криминал, WEB-DLRip] DVO (Savetig Studios)

 
Автор Сообщение

TorrentFilm ®

Пол:

Стаж: 2 года

Сообщений: 7741



Награды: Нет

Торрент-статистика

Создавать темы 26-Авг-2015 00:06

[Цитировать]

6 способов умереть / 6 Ways to Sundown
Страна: США
Жанр: боевик, триллер, криминал
Год выпуска: 2015
Продолжительность: 01:43:31
Перевод: Любительский (двухголосый закадровый) [Savetig Studios]
Cубтитры: нет
Режиссер: Надим Сума / Nadeem Soumah
В ролях: Винни Джонс, Майкл Рене Уолтон, Вивика А. Фокс, Том Сайзмор, Бай Лин, Доминик Суэйн, Мелисса Марс, Питер Добсон, Крис Джай Алекс, Хосе Росете
Описание: Джон Доу человек-загадка. Его личность и история неизвестны. Его цель уничтожить наркодиллера Сонни Гарсия. Но прежде, чем он сделает это, он хочет, чтобы Сонни почувствовал все, что он чувствовал, выстрадал все, что он страдал и потерял все, что он потерял. Джон Доу нанимает 6 преступников с индивидуальными способностями, для выполнения своего плана. Джон хочет 6 вещей, взятых от Сонни: его свободу, его любовь, его репутацию, его самое ценное достояние, деньги и, наконец его жизнь. Жизнь Сонни быстро и эффективно превратилась в сущий ад. Его банковский счет уничтожен. Его жена исчезает. Его преданность ставится под сомнение. Но это только начало.
Сэмпл: http://sendfile.su/1146129
Качество видео: WEB-DLRip
Формат видео: AVI
Видео: 720x304 (2.35:1), 23.976 fps, XviD build 50 ~1607 kbps avg, 0.27 bit/pixel
Аудио: Русский: 48 kHz, AC3 Dolby Digital, 2/0 (L,R) ch, ~192 kbps [Любительский (двухголосый)]
Аудио 2: Английский: 48 kHz, AC3 Dolby Digital, 2/0 (L,R) ch, ~192 kbps [Оригинал]

MediaInfo

Format : AVI
Format/Info : Audio Video Interleave
File size : 1.45 GiB
Duration : 1h 43mn
Overall bit rate : 2 006 Kbps
Writing application : VirtualDubMod 1.5.10.3 | www.virtualdub-fr.org || (build 2550/release)
Writing library : VirtualDubMod build 2550/release
Video
ID : 0
Format : MPEG-4 Visual
Format profile : Advanced Simple@L5
Format settings, BVOP : 1
Format settings, QPel : No
Format settings, GMC : No warppoints
Format settings, Matrix : Custom
Codec ID : XVID
Codec ID/Hint : XviD
Duration : 1h 43mn
Bit rate : 1 607 Kbps
Width : 720 pixels
Height : 304 pixels
Display aspect ratio : 2.35:1
Frame rate : 23.976 fps
Color space : YUV
Chroma subsampling : 4:2:0
Bit depth : 8 bits
Scan type : Progressive
Compression mode : Lossy
Bits/(Pixel*Frame) : 0.306
Stream size : 1.16 GiB (80%)
Writing library : XviD 73
Audio #1
ID : 1
Format : AC-3
Format/Info : Audio Coding 3
Mode extension : CM (complete main)
Format settings, Endianness : Big
Codec ID : 2000
Duration : 1h 43mn
Bit rate mode : Constant
Bit rate : 192 Kbps
Channel(s) : 2 channels
Channel positions : Front: L R
Sampling rate : 48.0 KHz
Bit depth : 16 bits
Compression mode : Lossy
Stream size : 142 MiB (10%)
Alignment : Split accross interleaves
Interleave, duration : 42 ms (1.00 video frame)
Interleave, preload duration : 500 ms
Audio #2
ID : 2
Format : AC-3
Format/Info : Audio Coding 3
Mode extension : CM (complete main)
Format settings, Endianness : Big
Codec ID : 2000
Duration : 1h 43mn
Bit rate mode : Constant
Bit rate : 192 Kbps
Channel(s) : 2 channels
Channel positions : Front: L R
Sampling rate : 48.0 KHz
Bit depth : 16 bits
Compression mode : Lossy
Stream size : 142 MiB (10%)
Alignment : Split accross interleaves
Interleave, duration : 42 ms (1.00 video frame)
Interleave, preload duration : 500 ms

Скриншот c названием фильма

Скриншоты





[Профиль] [ЛС]
Показать сообщения:    

Текущее время: Сегодня 01:09

Часовой пояс: GMT



Вы не можете начинать темы
Вы не можете отвечать на сообщения
Вы не можете редактировать свои сообщения
Вы не можете удалять свои сообщения
Вы не можете голосовать в опросах
Вы не можете прикреплять файлы к сообщениям
Вы не можете скачивать файлы